Ссылка на приватное зеркало нашего сайта всего за 1$. Внимание количество ограничено!!!

2 сезон

iTunes

1 сезон

1

iTunes

iTunes

iTunes

1 сезон

RePack

30

ИГРА 18+

pack

ВАЖНО

!!Акция!!

Alien_RageХит недели

RePack

MK11
pack

Забери бонус

RePack

jed

!!Акция!!

Alien_Rage

RePack

fifa19

RePack

Assassins Creed: Odyssey

RePack

NEED FOR SPEED™ PAYBACK

4 сезон

9 сезон

Бесстыжие 9 сезон

Все сериалы

все сериалы на PB.wtf

RePack

FAR CRY 5
  

Хлоя / Chloe (Атом Эгоян) [2009, триллер, драма, мелодрама, детектив, BDRip 720p by msltel] DUB pb.wtf

Хлоя через торрент pb.wtf

Размер: 4.67 GB | Добавлен: 3 года 1 мес. назад | Торрент скачан:178 раз
Скачать  

10-09-2017 06:17 Хлоя Скачать торрент  

Название: Хлоя
Оригинальное название: Chloe
Год выпуска: 2009
Страна: США, Канада, Франция
Жанр: триллер, драма, мелодрама, детектив
Продолжительность: 01:36:27
Перевод: дублированный

Режиссер: Атом Эгоян
В ролях: Джулианна Мур, Лиам Нисон, Аманда Сайфред, Макс Тириот, Р.Х. Томсон, Нина Добрев, Мишу Веллани, Джули Ханер, Лаура ДеКартере, Натали Лисинска

О фильме: Кэтрин — врач, Дэвид — профессор, у них прекрасный сын. На первый взгляд, это идеальная семья. Но однажды Дэвид опаздывает на самолёт и пропускает семейное торжество, посвящённое его дню рождения. С этого момента Кэтрин начинает подозревать мужа в измене. Женщина заключает сделку с Хлоей, которая должна соблазнить Дэвида и предоставить подробный отчёт. Но со временем отчёты становятся всё более сухими, а встречи двух женщин — всё более частыми…



Качество: BDRip 720p
Формат: MKV
Видео: MPEG-4 AVC, 6038 Кбит/с, 1280x690
Аудио 1: русский, AC3, 448 kbps, 6 ch [дублированный, Blu-ray, Вольга]
Аудио 2: английский, AC3, 448 kbps, 6 ch, 48 kHz [оригинал]
Субтитры: английские
Имеются неименованные главы/чаптеры.
Общее
Уникальный идентификатор : 206577916121783634285166728385536004415 (0x9B69759E9168F5308F10FAD01B6D113F)
Полное имя : D:\Video\Хлоя.2009.BDRip.720p by msltel.mkv
Формат : Matroska
Версия формата : Version 4 / Version 2
Размер файла : 4,67 Гбайт
Продолжительность : 1 ч. 36 м.
Общий поток : 6936 Кбит/сек
Название фильма : Rip by msltel
Дата кодирования : UTC 2017-09-09 02:06:43
Программа кодирования : mkvmerge v8.2.0 ('World of Adventure') 64bit
Библиотека кодирования : libebml v1.3.1 + libmatroska v1.4.2

Видео
Идентификатор : 1
Формат : AVC
Формат/Информация : Advanced Video Codec
Профиль формата : High@L4.1
Параметр CABAC формата : Да
Параметр RefFrames формата : 9 кадров
Идентификатор кодека : V_MPEG4/ISO/AVC
Продолжительность : 1 ч. 36 м.
Битрейт : 6038 Кбит/сек
Ширина : 1280 пикселей
Высота : 690 пикселей
Соотношение сторон : 1,85:1
Режим частоты кадров : Постоянный
Частота кадров : 23,976 (24000/1001) кадра/сек
Цветовое пространство : YUV
Субдискретизация насыщенности : 4:2:0
Битовая глубина : 8 бит
Тип развёртки : Прогрессивная
Бит/(Пиксели*Кадры) : 0.285
Размер потока : 4,07 Гбайт (87%)
Библиотека кодирования : x264 core 146 r2538 121396c
Настройки программы : cabac=1 / ref=9 / deblock=1:-3:-2 / analyse=0x3:0x113 / me=umh / subme=11 / psy=1 / psy_rd=1.00:0.15 / mixed_ref=1 / me_range=32 / chroma_me=1 / trellis=2 / 8x8dct=1 / cqm=0 / deadzone=21,11 / fast_pskip=0 / chroma_qp_offset=-3 / threads=6 / lookahead_threads=1 / sliced_threads=0 / nr=0 / decimate=1 / interlaced=0 / bluray_compat=0 / constrained_intra=0 / bframes=8 / b_pyramid=2 / b_adapt=2 / b_bias=0 / direct=1 / weightb=1 / open_gop=0 / weightp=2 / keyint=230 / keyint_min=23 / scenecut=40 / intra_refresh=0 / rc_lookahead=40 / rc=crf / mbtree=0 / crf=19.0 / qcomp=0.60 / qpmin=0 / qpmax=69 / qpstep=4 / vbv_maxrate=62500 / vbv_bufsize=78125 / crf_max=0.0 / nal_hrd=none / filler=0 / ip_ratio=1.40 / pb_ratio=1.30 / aq=1:1.00
Язык : English
Default : Да
Forced : Нет

Аудио #1
Идентификатор : 2
Формат : AC-3
Формат/Информация : Audio Coding 3
Параметр Endianness формата : Big
Идентификатор кодека : A_AC3
Продолжительность : 1 ч. 36 м.
Вид битрейта : Постоянный
Битрейт : 448 Кбит/сек
Каналы : 6 каналов
Расположение каналов : Front: L C R, Side: L R, LFE
Частота : 48,0 КГц
Частота кадров : 31,250 кадров/сек (1536 SPF)
Битовая глубина : 16 бит
Метод сжатия : С потерями
Размер потока : 309 Мбайт (6%)
Заголовок : DUB.Blu-ray Вольга
Язык : Russian
ServiceKind/String : Complete Main
Default : Да
Forced : Нет

Аудио #2
Идентификатор : 3
Формат : AC-3
Формат/Информация : Audio Coding 3
Параметр Endianness формата : Big
Идентификатор кодека : A_AC3
Продолжительность : 1 ч. 36 м.
Вид битрейта : Постоянный
Битрейт : 448 Кбит/сек
Каналы : 6 каналов
Расположение каналов : Front: L C R, Side: L R, LFE
Частота : 48,0 КГц
Частота кадров : 31,250 кадров/сек (1536 SPF)
Битовая глубина : 16 бит
Метод сжатия : С потерями
Размер потока : 309 Мбайт (6%)
Заголовок : original
Язык : English
ServiceKind/String : Complete Main
Default : Нет
Forced : Нет

Текст
Идентификатор : 4
Формат : UTF-8
Идентификатор кодека : S_TEXT/UTF8
Идентификатор кодека/Информация : UTF-8 Plain Text
Продолжительность : 1 ч. 28 м.
Битрейт : 41 бит/сек
ElementCount : 866
Размер потока : 26,5 Кбайт (0%)
Заголовок : английские
Язык : English
Default : Нет
Forced : Нет

Меню
00:00:00.000 : :Chapter 01
00:05:25.365 : :Chapter 02
00:11:50.667 : :Chapter 03
00:17:50.568 : :Chapter 04
00:22:28.305 : :Chapter 05
00:30:59.190 : :Chapter 06
00:34:29.525 : :Chapter 07
00:40:18.416 : :Chapter 08
00:46:51.974 : :Chapter 09
00:54:42.737 : :Chapter 10
01:02:59.983 : :Chapter 11
01:04:55.016 : :Chapter 12
01:11:34.247 : :Chapter 13
01:17:34.983 : :Chapter 14
01:20:37.582 : :Chapter 15
01:24:21.972 : :Chapter 16
pb.wtf



Скачать Хлоя через торрент http://s019.radikal.ru/i628/1709/17/dc423642826a.jpg Скачать фильм Хлоя через торрент бесплантно в хорошем качестве О фильме: Кэтрин — врач, Дэвид — профессор, у них прекрасный сын. На первый взгляд, это идеальная семья. Но однажды Дэвид опаздывает на ... 9 10 3
Info! Золотая раздача, скачанное не засчитывается.
Торрент: Зарегистрирован [2017-09-10 06:17] · скачан: 178 раз
Статус: √ проверено
Размер: 4.67 GB
Как cкачать? Как скачать Хлоя через торрент | qTorrent

% Раздел Тема Автор DL S | L
Фильмы [HD 720p, 1080p] (Хороший звук DUB, MVO) [ 13.69 GB ] Хлоя / Chloe [2009 BDRip 1080p by msltel] DUB msltel Скачать
1 | 0
T Фильмы 2015 (Звук TS, Cam, VO, DVO) [ 1.46 GB ] Хлоя и Тео / Chloe and Theo [2015 WEB-DLRip] DVO Ворон Скачать
1 | 0
T Фильмы 2015 (Звук TS, Cam, VO, DVO) [ 751 MB ] Хлоя и Тео / Chloe and Theo [2015 WEB-DLRip] DVO Ворон Скачать
1 | 0

28-11-2019 20:33  

Отключить всю рекламу на сайте

    Дорогой пользователь! Огромная просьба, поблагодарите релизера, оцените раздачу и оставьте свои комментарий, если Вы скачали Хлоя через торрент бесплатно! Внесите свою лепту в развитие PiratBit!
    Комментировать посты могут только пользователи прошедшие не сложную регистрацию
    Показать сообщения:    

    Хлоя через торрент
    Скачать бесплатно Хлоя
    Хлоя скачать торрент
    Хлоя смотреть онлайн
    Cкачать фильм Хлоя бесплатно
    Хлоя скачать торрент в хорошем качестве
    Хлоя смотреть онлайн бесплатно в хорошем качестве


    Вы не можете начинать темы
    Вы не можете отвечать на сообщения
    Вы не можете редактировать свои сообщения
    Вы не можете удалять свои сообщения
    Вы не можете голосовать в опросах
    Вы не можете прикреплять файлы к сообщениям
    Вы можете скачивать файлы