Ссылка на приватное зеркало нашего сайта всего за 1$. Внимание количество ограничено!!!

2 сезон

iTunes

1 сезон

1

2 сезон

2 сезон

iTunes

1 сезон

RePack

30

Ultimate

ВАЖНО

ИГРА 18+

pack

RePack

MK11
pack

Забери бонус

RePack

jed

!!Акция!!

Alien_Rage

RePack

fifa19

RePack

Assassins Creed: Odyssey

RePack

NEED FOR SPEED™ PAYBACK

4 сезон

9 сезон

Бесстыжие 9 сезон

Все сериалы

все сериалы на PB.wtf

RePack

FAR CRY 5
  

Пятый элемент / The Fifth Element (Люк Бессон) [1997, фантастика, боевик, триллер, комедия, UHDWEBRip 2160p] [4K Remastered] 2xDUB+MVO+DVO+3xAVO pb.wtf

Пятый элемент через торрент pb.wtf

Раздают: 1 [ 0 KB/s ]
Размер: 58.13 GB | Добавлен: 3 года 2 мес. назад | Торрент скачан:156 раз
Скачать  

10-09-2017 09:39 Пятый элемент Скачать торрент  

Пятый элемент / The Fifth Element | 4K Remastered | «It Mu5t Be Found»Год выпуска: 1997
Страна: Франция
Жанр: фантастика, боевик, триллер, комедия
Продолжительность: 02:05:54

Перевод:

Профессиональный (полное дублирование)[Амальгама] +
Профессиональный (полное дублирование)[НТВ-Профит] +
Профессиональный (многоголосый закадровый)[НТВ] +
Профессиональный (двухголосый закадровый)[П.Гланц , И.Королева] +
Авторский (одноголосый закадровый)[А.Гаврилов] +
Авторский (одноголосый закадровый)[Ю.Живов] +
Авторский (одноголосый закадровый)[В.Штейн ака "Буратино"] +
Оригинал (Английский)

Субтитры: Английский, Русские[PGS]

Режиссер: Люк Бессон

rating

В ролях:

Брюс Уиллис, Милла Йовович, Гари Олдман, Иэн Холм, Крис Такер, Люк Перри, Брайон Джеймс, Том ’Тайни’ Листер мл., Ли Эванс, Чарли Крид-Майлз

Описание:

Каждые пять тысяч лет открываются двери между измерениями и темные силы стремятся нарушить существующую гармонию. Каждые пять тысяч лет Вселенной нужен герой, способный противостоять этому злу. XXIII век. Нью-йоркский таксист Корбен Даллас должен решить глобальную задачу — спасение всего рода человеческого.Зло в виде раскаленной массы, наделенной интеллектом, надвигается на Землю. Победить его можно, только лишь собрав воедино четыре элемента (они же стихии — земля, вода, воздух и огонь) и добавив к ним загадочный пятый элемент.

Качество: UHDWEBRip 2160p
Формат: MKV
Видео кодек: HEVC
Аудио кодек: DTS/AC3

Видео: 4096x2160 (1,89:1), 23.976 fps, HEVC (x.265), ~46100 kbps, 0.217 bits/pixel
Аудио#1: Dolby Digital Audio, English, 640 kbps 5.1, 48 kHz, DN -4dB
Аудио#2: DTS-HD Master Audio, Russian, 2432 kbps, 5.1, 48 khz, 16-bit (DTS Core: 5.1 / 48khz / 1509 kbps / 16-bit) |Профессиональный (полное дублирование), Амальгама|
Аудио#3: Dolby Digital Audio, Russian, 448 kbps 5.1, 48 kHz, DN -4dB |Профессиональный (полное дублирование), НТВ-Профит|
Аудио#4: DTS-HD Master Audio, Russian, 5091 kbps, 7.1, 48 khz, 24-bit (DTS Core: 5.1 / 48khz / 1509 kbps / 24-bit) |Профессиональный (двухголосый закадровый), П.Гланц, и И.Королева|
Аудио#5: Dolby Digital Audio, Russian, 448 kbps 5.1, 48 kHz, DN -4dB |Профессиональный (многоголосый закадровый), "СТС", так же известный как "НТВ"|
Аудио#6: DTS-HD Master Audio, Russian, 5058 kbps, 7.1, 48 khz, 24-bit (DTS Core: 5.1 / 48khz / 1509 kbps / 24-bit) |Авторский (одноголосый закадровый), А.Гаврилов|
Аудио#7: DTS-HD Master Audio, Russian, 5651 kbps, 7.1, 48 khz, 24-bit (DTS Core: 5.1 / 48khz / 1509 kbps / 24-bit) |Авторский (одноголосый закадровый), Ю.Живов|
Аудио#8: Dolby Digital Audio, Russian, 192 kbps 2.0, 48 kHz, DN -4dB |Авторский (одноголосый закадровый), В.Штейн ака "Буратино"|


скриншот  скриншот  скриншот  скриншот  скриншот  

Общее
Уникальный идентификатор : 188514755534512571173063101342503138432 (0x8DD29F0B2CF25F67BFB2DC128E33F480)
Полное имя : D:HD_Video!!!!2160p02-Пятый элементThe.Fifth.Element.4K.Remastered.mkv
Формат : Matroska
Версия формата : Version 4 / Version 2
Размер файла : 58,1 Гбайт
Продолжительность : 2 ч. 6 м.
Общий поток : 65,8 Мбит/сек
Дата кодирования : UTC 2015-12-26 09:38:40
Программа кодирования : mkvmerge v8.6.1 ('Flying') 64bit
Библиотека кодирования : libebml v1.3.3 + libmatroska v1.4.4

Видео
Идентификатор : 1
Формат : HEVC
Формат/Информация : High Efficiency Video Coding
Профиль формата : Main@L5@Main
Идентификатор кодека : V_MPEGH/ISO/HEVC
Продолжительность : 2 ч. 5 м.
Битрейт : 46,1 Мбит/сек
Ширина : 4096 пикселей
Высота : 2160 пикселей
Соотношение сторон : 1,896
Режим частоты кадров : Постоянный
Частота кадров : 23,976 (23976/1000) кадра/сек
Цветовое пространство : YUV
Субдискретизация насыщенности : 4:2:0
Битовая глубина : 8 бит
Бит/(Пиксели*Кадры) : 0.217
Размер потока : 40,5 Гбайт (70%)
Библиотека кодирования : x265 unknown:[Windows][GCC 4.7.0][32 bit]
Настройки программы : wpp / ctu=32 / min-cu-size=8 / max-tu-size=32 / tu-intra-depth=1 / tu-inter-depth=1 / me=0 / subme=0 / merange=25 / no-rect / no-amp / max-merge=2 / temporal-mvp / early-skip / rdpenalty=0 / no-tskip / no-tskip-fast / strong-intra-smoothing / no-lossless / no-cu-lossless / no-constrained-intra / fast-intra / open-gop / no-temporal-layers / interlace=0 / keyint=3 / min-keyint=1 / scenecut=0 / rc-lookahead=10 / bframes=1 / bframe-bias=0 / b-adapt=0 / ref=1 / no-weightp / no-weightb / aq-mode=0 / aq-strength=0.00 / cbqpoffs=0 / crqpoffs=0 / rd=2 / psy-rd=0.30 / psy-rdoq=0.00 / no-signhide / lft / no-sao / no-sao-non-deblock / b-pyramid / no-cutree / rc=abr / bitrate=45000 / qcomp=0.60 / qpmin=0 / qpmax=51 / qpstep=4 / ipratio=1.40 / pbratio=1.30
Default : Да
Forced : Нет

Аудио #1
Идентификатор : 2
Формат : AC-3
Формат/Информация : Audio Coding 3
Расширение режима : CM (complete main)
Параметр Endianness формата : Big
Идентификатор кодека : A_AC3
Продолжительность : 2 ч. 5 м.
Вид битрейта : Постоянный
Битрейт : 640 Кбит/сек
Каналы : 6 каналов
Расположение каналов : Front: L C R, Side: L R, LFE
Частота : 48,0 КГц
Частота кадров : 31,250 кадров/сек (1536 spf)
Метод сжатия : С потерями
Размер потока : 576 Мбайт (1%)
Заголовок : Surround 5.1 Original
Язык : English
Default : Да
Forced : Нет

Аудио #2
Идентификатор : 3
Формат : DTS
Формат/Информация : Digital Theater Systems
Профиль формата : MA / Core
Режим : 16
Параметр Endianness формата : Big
Идентификатор кодека : A_DTS
Продолжительность : 2 ч. 5 м.
Вид битрейта : Переменный / Постоянный
Битрейт : 2432 Кбит/сек / 1509 Кбит/сек
Каналы : 6 каналов
Расположение каналов : Front: L C R, Side: L R, LFE
Частота : 48,0 КГц
Частота кадров : 93,750 кадра/сек (512 spf)
Битовая глубина : 16 бит
Метод сжатия : Без потерь / Lossy
Размер потока : 2,14 Гбайт (4%)
Заголовок : Surround 5.1 (DUB -> BD RUS "Amalgama")
Язык : Russian
Default : Нет
Forced : Нет

Аудио #3
Идентификатор : 4
Формат : AC-3
Формат/Информация : Audio Coding 3
Расширение режима : CM (complete main)
Параметр Endianness формата : Big
Идентификатор кодека : A_AC3
Продолжительность : 2 ч. 5 м.
Вид битрейта : Постоянный
Битрейт : 448 Кбит/сек
Каналы : 6 каналов
Расположение каналов : Front: L C R, Side: L R, LFE
Частота : 48,0 КГц
Частота кадров : 31,250 кадров/сек (1536 spf)
Метод сжатия : С потерями
Размер потока : 403 Мбайт (1%)
Заголовок : Surround 5.1 (DUB NTV)
Язык : Russian
Default : Нет
Forced : Нет

Аудио #4
Идентификатор : 5
Формат : DTS
Формат/Информация : Digital Theater Systems
Профиль формата : MA / Core
Режим : 16
Параметр Endianness формата : Big
Идентификатор кодека : A_DTS
Продолжительность : 2 ч. 5 м.
Вид битрейта : Переменный / Постоянный
Битрейт : 5091 Кбит/сек / 1509 Кбит/сек
Каналы : 8 каналов / 6 каналов
Расположение каналов : Front: L C R, Side: L R, Back: L R, LFE / Front: L C R, Side: L R, LFE
Частота : 48,0 КГц
Частота кадров : 93,750 кадра/сек (512 spf)
Битовая глубина : 24 бит
Метод сжатия : Без потерь / Lossy
Размер потока : 4,48 Гбайт (8%)
Заголовок : Surround 7.1 (MVO П.Гланц, И.Королёва)
Язык : Russian
Default : Нет
Forced : Нет

Аудио #5
Идентификатор : 6
Формат : AC-3
Формат/Информация : Audio Coding 3
Расширение режима : CM (complete main)
Параметр Endianness формата : Big
Идентификатор кодека : A_AC3
Продолжительность : 2 ч. 5 м.
Вид битрейта : Постоянный
Битрейт : 448 Кбит/сек
Каналы : 6 каналов
Расположение каналов : Front: L C R, Side: L R, LFE
Частота : 48,0 КГц
Частота кадров : 31,250 кадров/сек (1536 spf)
Метод сжатия : С потерями
Размер потока : 403 Мбайт (1%)
Заголовок : Surround 5.1 (MVO "CTC", так же известный как "НТВ")
Язык : Russian
Default : Нет
Forced : Нет

Аудио #6
Идентификатор : 7
Формат : DTS
Формат/Информация : Digital Theater Systems
Профиль формата : MA / Core
Режим : 16
Параметр Endianness формата : Big
Идентификатор кодека : A_DTS
Продолжительность : 2 ч. 5 м.
Вид битрейта : Переменный / Постоянный
Битрейт : 5058 Кбит/сек / 1509 Кбит/сек
Каналы : 8 каналов / 6 каналов
Расположение каналов : Front: L C R, Side: L R, Back: L R, LFE / Front: L C R, Side: L R, LFE
Частота : 48,0 КГц
Частота кадров : 93,750 кадра/сек (512 spf)
Битовая глубина : 24 бит
Метод сжатия : Без потерь / Lossy
Размер потока : 4,45 Гбайт (8%)
Заголовок : Surround 7.1 (VO А.Гаврилов)
Язык : Russian
Default : Нет
Forced : Нет

Аудио #7
Идентификатор : 8
Формат : DTS
Формат/Информация : Digital Theater Systems
Профиль формата : MA / Core
Режим : 16
Параметр Endianness формата : Big
Идентификатор кодека : A_DTS
Продолжительность : 2 ч. 5 м.
Вид битрейта : Переменный / Постоянный
Битрейт : 5651 Кбит/сек / 1509 Кбит/сек
Каналы : 8 каналов / 6 каналов
Расположение каналов : Front: L C R, Side: L R, Back: L R, LFE / Front: L C R, Side: L R, LFE
Частота : 48,0 КГц
Частота кадров : 93,750 кадра/сек (512 spf)
Битовая глубина : 24 бит
Метод сжатия : Без потерь / Lossy
Размер потока : 4,97 Гбайт (9%)
Заголовок : Surround 7.1 (VO Ю.Живов)
Язык : Russian
Default : Нет
Forced : Нет

Аудио #8
Идентификатор : 9
Формат : AC-3
Формат/Информация : Audio Coding 3
Профиль формата : Dolby Digital
Расширение режима : CM (complete main)
Параметр Endianness формата : Big
Идентификатор кодека : A_AC3
Продолжительность : 2 ч. 6 м.
Вид битрейта : Постоянный
Битрейт : 192 Кбит/сек
Каналы : 2 канала
Расположение каналов : Front: L R
Частота : 48,0 КГц
Частота кадров : 31,250 кадров/сек (1536 spf)
Метод сжатия : С потерями
Размер потока : 174 Мбайт (0%)
Заголовок : Stereo (VO В.Штейн ака "Буратино")
Язык : Russian
Default : Нет
Forced : Нет

Текст #1
Идентификатор : 10
Формат : PGS
Режим смешивания : zlib
Идентификатор кодека : S_HDMV/PGS
Идентификатор кодека/Информация : Picture based subtitle format used on BDs/HD-DVDs
Продолжительность : 2 ч. 4 м.
Битрейт : 15,4 Кбит/сек
Count of elements : 3532
Размер потока : 13,8 Мбайт (0%)
Язык : English
Default : Нет
Forced : Нет

Текст #2
Идентификатор : 11
Формат : PGS
Режим смешивания : zlib
Идентификатор кодека : S_HDMV/PGS
Идентификатор кодека/Информация : Picture based subtitle format used on BDs/HD-DVDs
Продолжительность : 2 ч. 1 м.
Битрейт : 16,0 Кбит/сек
Count of elements : 2524
Размер потока : 13,9 Мбайт (0%)
Язык : Russian
Default : Нет
Forced : Нет

Меню
00:00:00.000 : en:Chapter 01
00:02:37.073 : en:Chapter 02
00:12:11.605 : en:Chapter 03
00:24:17.539 : en:Chapter 04
00:32:14.682 : en:Chapter 05
00:40:05.236 : en:Chapter 06
00:48:11.680 : en:Chapter 07
00:53:23.116 : en:Chapter 08
01:00:16.613 : en:Chapter 09
01:07:16.991 : en:Chapter 10
01:11:16.647 : en:Chapter 11
01:21:54.659 : en:Chapter 12
01:27:25.657 : en:Chapter 13
01:38:29.778 : en:Chapter 14
01:46:35.347 : en:Chapter 15
01:52:26.364 : en:Chapter 16

* Люк Бессон написал сценарий к картине еще в то время, когда был учеником средней школы.
* Полное имя Лилу звучит так — «ЛилуминАй ЛекатАриба ЛаминачАй Экбат Дэ СэбАт».
* Язык, на котором разговаривает персонаж Миллы Йовович — Лилу, был придуман самим Люком Бессоном. Разумеется, не обошлось и без импровизации самой актрисы. К моменту окончания съемок они могли спокойно болтать друг с другом на выдуманном языке, чем приводили в восторг всю съемочную бригаду.
* Среди этой тарабарщины зритель может выявить такие фразы как «Мларта», «Биг Бадабум», «Акта», «Сено Акта Гамат», «Сан агамат чей бэт Энволет», «Данко», «Домо Данко» и «Апипулай». Все остальные фразы звучат нечленораздельно.
* Взрыв в главном Флостонском зале на момент выхода картины в прокат был самым мощным взрывом внутри помещения, когда-либо демонстрируемым в рамках художественного фильма.
* В самом начале картины персонаж Гари Олдмана цитирует Ницше: «То, что тебя не убивает, делает тебя только сильнее». Брюс Уиллис в свое время записал альбом с точно таким же названием.
* По сценарию персонажа Криса Такера звали вовсе не Руби Род, а Лок Род. Именно это имя (Локк) можно встретить и в книге, написанной по мотивам фильма.
* Впервые увидев Корбена Далласа в кадре, мы можем увидеть дату на календаре в его комнате — 18 марта 2263 года. 18 марта — день рождения Люка Бессона.
* Когда Президент говорит священнику Корнелиусу, что у того есть ровно двадцать секунд, чтобы озвучить свою мысль, Вито успевает донести свои суждения именно за 20 секунд.
* За всю историю французского кино данная лента стала самой дорогостоящей как для всей Франции, так и для кинокомпании Gaumont в частности.
* К моменту выхода картины в прокат затраты на создание спецэффектов в размере 80 миллионов были самыми дорогостоящими в истории кино. До сих пор картина считается одной из самых дорогостоящих картин, выпущенных без участия Голливуда.
* В 2002 году по лицензии кинокомпании Gaumont по мотивам фильма была выпущена компьютерная аркада «NY Race». В России локализована компаниями Nival Interactive и 1С под названием «Погоня за Пятым элементом». Игроку предлагается ощутить себя «в шкуре» Корбена Далласа и погонять такси по улицам Нью-Йорка 2259 года.
* Часть арии Плавы Лагуны спета не человеческим голосом, а создана на компьютере. Для человека исполнение этой партии практически невозможно.
* Когда Лилу восстанавливают по коду ДНК, ее одежда в точности повторяет одежду Марии в фантастическом фильме «Метрополис» 1927 года.
* Надпись на поезде «Макдональдс», в который врезается полицейская машина, гласит: «Обслужено 65 триллионов людей».
* Паразиты, от которых очищают шасси космолета, перед отлетом во Флостонский рай, на самом деле Боглины (Boglins), популярные в 80-х игрушки.
* Гари Олдман согласился сниматься в этом фильме, не читая сценария. Это было любезностью по отношению к Люку Бессону, с которым он подружился на съёмках «Леона».
* Имя певицы, прячущей заветные камни в недрах своей плоти, звучит как «Плава Лагуна». Именно такое название носит бомбоубежище в Хорватии, где Люк довольно часто проводил свои летние каникулы, будучи ребенком. В переводе с хорватского данное имя звучит как «Голубая лагуна».

Для просмотра HDR-контента необходим телевизор с поддержкой HDR. Просто запишите на usb-накопитель скачанное видео и установите его в ваш ТВ. На обычных дисплеях изображение будет выглядеть неконтрастным и обесцвеченным.

Решение этой проблемы в настоящий момент возможно на PC под ОС Windows, используя плейер, который поддерживает вывод изображение через рендер madvr (http://madvr.com), который может выполнять программную конверсию в цветовое пространство и гамму REC.709.

Я рекомендую PotPlayer или Media Player Classic Home Cinema .

После установки рекомендованных плейеров необходимо отдельно установить madvr. Для этого скачайте архив, распакуйте его в удобное место и запустите install.bat от учетной записи администратора. После установки папку с содержимым не удалять! Если папку необходимо перенести в другое место, то после переноса необходимо снова запустить install.bat.
Для того, чтобы изображение выводилось посредством madvr, его необходимо выбрать в настройках плейера:






Чтобы попасть в настройки madvr можно запустить madHcCtrl.exe из папки с установленной программой. В трее появится значок, кликнув ПКМ по которому выберите edit madvr settings. В potplayer вызов настроек возможен нажатием на … справа от выбранного madshi video renderer. Также значок будет появляться каждый раз при проигрывании видео.
pb.wtf



Скачать Пятый элемент через торрент http://s019.radikal.ru/i644/1709/cf/d2bb8a370645.jpg Скачать фильм Пятый элемент через торрент бесплантно в хорошем качестве Описание: Каждые пять тысяч лет открываются двери между измерениями и темные силы стремятся нарушить существующую гармонию. Каждые пять ... 10 10 12
Info! Золотая раздача, скачанное не засчитывается.
Торрент: Зарегистрирован [2017-09-10 09:39] · скачан: 156 раз
Статус: √ проверено
Размер: 58.13 GB
Как cкачать? Как скачать Пятый элемент через торрент | qTorrent

% Раздел Тема Автор DL S | L
Ultra HD (UHD: 2K, 4K, 8K) — видео сверхвысокой чёткости [ 39.53 GB ] Пятый элемент / The Fifth Element [1997 UHD BDRip 2160p] 2xDUB + MVO + DVO + 3xAVO + 3xMVO sheker187 Скачать
1 | 0

28-11-2019 20:33  

Отключить всю рекламу на сайте

    Дорогой пользователь! Огромная просьба, поблагодарите релизера, оцените раздачу и оставьте свои комментарий, если Вы скачали Пятый элемент через торрент бесплатно! Внесите свою лепту в развитие PiratBit!
    Комментировать посты могут только пользователи прошедшие не сложную регистрацию
    Показать сообщения:    

    Пятый элемент через торрент
    Скачать бесплатно Пятый элемент
    Пятый элемент скачать торрент
    Пятый элемент смотреть онлайн
    Cкачать фильм Пятый элемент бесплатно
    Пятый элемент скачать торрент в хорошем качестве
    Пятый элемент смотреть онлайн бесплатно в хорошем качестве


    Вы не можете начинать темы
    Вы не можете отвечать на сообщения
    Вы не можете редактировать свои сообщения
    Вы не можете удалять свои сообщения
    Вы не можете голосовать в опросах
    Вы не можете прикреплять файлы к сообщениям
    Вы можете скачивать файлы