Ссылка на приватное зеркало нашего сайта всего за 1$. Внимание количество ограничено!!!

2 сезон

iTunes

1 сезон

1

2 сезон

2 сезон

iTunes

1 сезон

RePack

30

Ultimate

ВАЖНО

ИГРА 18+

pack

RePack

MK11
pack

Забери бонус

RePack

jed

!!Акция!!

Alien_Rage

RePack

fifa19

RePack

Assassins Creed: Odyssey

RePack

NEED FOR SPEED™ PAYBACK

4 сезон

9 сезон

Бесстыжие 9 сезон

Все сериалы

все сериалы на PB.wtf

RePack

FAR CRY 5
  

2Pac: Легенда / All Eyez on Me (Бенни Бум) [2017 г., Драма, биография, музыка, BD Remux, Дубляж iTunes + MVO Синема УС] pb.wtf

2Pac: Легенда через торрент pb.wtf

Размер: 24.12 GB | Добавлен: 3 года 2 мес. назад | Торрент скачан:9 раз
Скачать  

10-09-2017 14:30 2Pac: Легенда Скачать торрент  

2Pac: Легенда / All Eyez on Me
Год выпуска: 2017
Страна: США
Жанр: Драма, биография, музыка
Продолжительность: 02:19:37
Перевод: Дубляж (iTunes) +Любительский многоголосый («Синема УС») +Оригинал
Субтитры: Английские, испанские

Режиссер: Бенни Бум

В ролях: Деметриус Шипп мл., Данай Джекесай Гурира, Катерина Грэхэм, Хилл Харпер, Энни Илонзе, Лорен Кохэн, Джамал Вулард, Доминик Сантана, Кори Хардрикт, Клифтон Пауэлл, Джэми Гектор, Рэйвен Саймон Феррелл, Шанель Янг, Брэндон Сове, Джош Вентура, Райан Рётс, Брюс Дэвис, Том Тон, Брайан Курландер, Лиан Тони Амадо, Скотт Хантер, Дэвид Флэннери, Кендрик Кросс, Хоуп Эш, Харольд Хаус Мур, Джернел Ховард, Вернелл Варнадо, Дамита Джейн Ховард, Филип Дайдо, Ямал Уэверз, Малкольм Гринидж, Фил Армихо, Майкл Бисли

Описание: Фильм посвящён судьбе и творчеству Тупака Шакура. Это правдивая история о том, как чернокожий выходец из гетто, участник криминальных разборок, неоднократно привлекавшийся к суду и развязавший смертельную войну рекорд-лейблов, становится настоящим голосом улиц и одним из самых влиятельных исполнителей в мировой рэп-культуре.

Качество: BD Remux
Формат: MKV
Видео кодек: AVC
Аудио кодек: AC3-DTS-HD MA
Видео: MPEG-4 AVC, (1920x1080),25063 Кбит/с, 23.976 кадра/сек
Аудио#1: AC3, 6 ch,384 kbps (Rus) 48.0 KHz дублированный (iTunes)
Аудио#2: AC3, 2 ch,192 kbps (Rus) 48.0 KHz Любительский многоголосый («Синема УС»)
Аудио#3: AC3, 6 ch,640 kbps (Eng) 48.0 KHz Оригинал
Аудио#4: DTS-HD MA, 6 ch,3629 kbps (Eng) 48.0 KHz Оригинал
скриншот   скриншот   скриншот  

Тип потока: Видео
Длительность: 02:19:37
Кодек: AVC
Кодек/описание: Advanced Video Codec
Кодек/профиль: High@L4.1
Кодек/ID: V_MPEG4/ISO/AVC
Кодек/CABAC: Yes
Кодек/ReFrames: 4 frames
Размеры изображения: 1920 x 1080 (16:9)
Частота кадров: 23.976 fps
Частота кадров/тип: Constant
Битрейт/макс: 35.0 Mbps
Битрейт/тип: VBR
Цветовое пространство: YUV
Тип развёртки: Progressive
Колориметрия: 4:2:0
Глубина: 8 bits
:
Тип потока: Звук #1
Язык: Russian
Название: AC3, 6 ch, 384 Kbps, Dub, iTunes
Длительность: 02:19:37.411
Кодек: AC-3
Кодек/описание: Audio Coding 3
Кодек/ID: A_AC3
Частота дискретизации: 48.0 KHz
Каналов: 6 channels
Битрейт: 384 Kbps
Битрейт/тип: Constant
Размер потока: 383 MiB (2%)
Глубина: 16 bits
Метод сжатия: Lossy
:
Тип потока: Звук #2
Язык: Russian
Название: АС3, 2 ch, 192 Kbps, MVO
Длительность: 02:19:37.411
Кодек: AC-3
Кодек/описание: Audio Coding 3
Кодек/ID: A_AC3
Частота дискретизации: 48.0 KHz
Каналов: 2 channels
Битрейт: 192 Kbps
Битрейт/тип: Constant
Размер потока: 192 MiB (1%)
Глубина: 16 bits
Метод сжатия: Lossy
:
Тип потока: Звук #3
Язык: English
Название: АС3, 6 ch, 640 Kbps, Original
Длительность: 02:19:37.411
Кодек: AC-3
Кодек/описание: Audio Coding 3
Кодек/ID: A_AC3
Частота дискретизации: 48.0 KHz
Каналов: 6 channels
Битрейт: 640 Kbps
Битрейт/тип: Constant
Размер потока: 639 MiB (3%)
Глубина: 16 bits
Метод сжатия: Lossy
:
Тип потока: Звук #4
Язык: English
Название: DTS-HD MA, 6 ch, 3629 Kbps, Original
Длительность: 02:19:37.411
Кодек: DTS
Кодек/описание: Digital Theater Systems
Кодек/профиль: MA / Core
Кодек/ID: A_DTS
Частота дискретизации: 48.0 KHz
Каналов: 6 channels
Битрейт: Unknown / 1 509 Kbps
Битрейт/тип: Variable
Глубина: 24 bits
Метод сжатия: Lossless / Lossy
:
Тип потока: Субтитры #1
Язык: English
Формат: UTF-8
Формат/подробно: UTF-8 Plain Text
:
Тип потока: Субтитры #2
Язык: Spanish
Формат: UTF-8
Формат/подробно: UTF-8 Plain Text

pb.wtf



Скачать 2Pac: Легенда через торрент http://pic1.kartinco.top/images/11/dw234.jpg Скачать фильм 2Pac: Легенда через торрент бесплантно в хорошем качестве Описание: Фильм посвящён судьбе и творчеству Тупака Шакура. Это правдивая история о том, как чернокожий выходец из гетто, участник ... 10 10 6
Info! Золотая раздача, скачанное не засчитывается.
Торрент: Зарегистрирован [2017-09-10 14:30] · скачан: 9 раз
Статус: √ проверено
Размер: 24.12 GB
Как cкачать? Как скачать 2Pac: Легенда через торрент | qTorrent

% Раздел Тема Автор DL S | L
Фильмы 2017 [DVDrip, WEB-DLRip, HDrip] (DUB, MVO) [ 1.44 GB ] 2pac: Легенда / All Eyez on Me [2017 биография музыка BDRip-AVC] - ExKinoRay Enigma2010 Скачать
1 | 0
Фильмы 2017 [DVDrip, WEB-DLRip, HDrip] (DUB, MVO) [ 2.28 GB ] 2pac: Легенда / All Eyez on Me [2017 биография музыка BDRip-AVC] От R.G.Generalfilm White Smoke Скачать
1 | 0
Фильмы 2017 [DVDrip, WEB-DLRip, HDrip] (DUB, MVO) [ 1.46 GB ] 2pac: Легенда / All Eyez on Me [2017 биография музыка BDRip] - Twi7ter Скачать
1 | 0
Фильмы 2017 [DVDrip, WEB-DLRip, HDrip] (DUB, MVO) [ 2.12 GB ] 2pac: Легенда / All Eyez on Me [2017 биография музыка BDRip] - Twi7ter Скачать
1 | 0
Фильмы 2017 [DVDrip, WEB-DLRip, HDrip] (DUB, MVO) [ 2.84 GB ] 2pac: Легенда / All Eyez on Me [2017 биография музыка BDRip-AVC] bober100 Скачать
1 | 0
Фильмы [HD 720p, 1080p] (Хороший звук DUB, MVO) [ 12.01 GB ] 2pac: Легенда / All Eyez on Me [2017 биография музыка BDRip 1080p] +MVO [Синема УС] bober100 Скачать
1 | 0
Фильмы 2017 [DVDrip, WEB-DLRip, HDrip] (DUB, MVO) [ 1.46 GB ] 2pac: Легенда / All Eyez on Me [2017 биография музыка WEB-DLRip] DUB [Локализованный видеоряд] bober100 Скачать
1 | 0

28-11-2019 20:33  

Отключить всю рекламу на сайте

10-09-2017 18:10 2Pac: Легенда Скачать торрент  

И кому эта какашка интересна? Пока сам себя не похвалишь... не назовёшь легендой...pb.wtf



10-10-2017 13:30 2Pac: Легенда Скачать торрент  

Дайте пожалуйста скорости ) 2 день не могу скачать _осталось 4.3г скорость ниже 1 метра _и то вообще нетуpb.wtf



    Дорогой пользователь! Огромная просьба, поблагодарите релизера, оцените раздачу и оставьте свои комментарий, если Вы скачали 2Pac: Легенда через торрент бесплатно! Внесите свою лепту в развитие PiratBit!
    Комментировать посты могут только пользователи прошедшие не сложную регистрацию
    Показать сообщения:    

    2Pac: Легенда через торрент
    Скачать бесплатно 2Pac: Легенда
    2Pac: Легенда скачать торрент
    2Pac: Легенда смотреть онлайн
    Cкачать фильм 2Pac: Легенда бесплатно
    2Pac: Легенда скачать торрент в хорошем качестве
    2Pac: Легенда смотреть онлайн бесплатно в хорошем качестве


    Вы не можете начинать темы
    Вы не можете отвечать на сообщения
    Вы не можете редактировать свои сообщения
    Вы не можете удалять свои сообщения
    Вы не можете голосовать в опросах
    Вы не можете прикреплять файлы к сообщениям
    Вы можете скачивать файлы