Ссылка на приватное зеркало нашего сайта всего за 1$. Внимание количество ограничено!!!

2 сезон

iTunes

1 сезон

1

iTunes

iTunes

iTunes

1 сезон

RePack

30

ИГРА 18+

pack

ВАЖНО

!!Акция!!

Alien_RageХит недели

RePack

MK11
pack

Забери бонус

RePack

jed

!!Акция!!

Alien_Rage

RePack

fifa19

RePack

Assassins Creed: Odyssey

RePack

NEED FOR SPEED™ PAYBACK

4 сезон

9 сезон

Бесстыжие 9 сезон

Все сериалы

все сериалы на PB.wtf

RePack

FAR CRY 5
  

Первое убийство / First Kill (Стивен С. Миллер) [2017, Боевик, триллер, BDRip 1080p] MVO [Paradox&Omskbird]+AVO [BadBajo] pb.wtf

Первое убийство через торрент pb.wtf

Размер: 9.74 GB | Добавлен: 3 года 1 мес. назад | Торрент скачан:184 раза
Скачать  

11-09-2017 05:16 Первое убийство Скачать торрент  

Первое убийство / First KillГод выпуска: 2017
Страна: США
Жанр: Боевик, триллер
Продолжительность: 01:41:42

Перевод:

#1: Любительский многоголосый | Paradox&Omskbird
#2: Авторское одноголосое| Важенин (BadBajo)


Субтитры: английские

Режиссер: Стивен С. Миллер

rating

В ролях:

Брюс Уиллис, Хейден Кристенсен, Гетин Энтони, Маги Авила, Шарлотта Кирк, Уильям ДеМео, Тамара Белоус, Хезер, охансен, Тайлер Джон Олсон

Описание:

Фильм об опытном офицере, который расследует похищение мальчика, ставшего свидетелем разборки между банковскими грабителями. Вызволить ребенка так же торопится его молодой отец, вызывающий у полицейского серьезные подозрения — а не был ли он сам связан с этим ограблением?

Качество: BDRip 1080p
Формат: MKV
Видео кодек: H.264
Аудио кодек: AC3

Видео: MPEG-4 AVC, 1920x800, 12.5 Mbit/s, 23.976 fps
Аудио#1: 48 kHz, AC3, 2.0, 192 Kbps | Paradox&Omskbird | RUS |
Аудио#2: 48 kHz, AC3, 5.1, 384 Kbps | Важенин (BadBajo) | RUS |
Аудио#3: 48 kHz, AC3, 5.1, 640 Kbps | Оригинал | ENG |

скриншот   скриншот   скриншот   скриншот   скриншот  

General
Unique ID : 234078907952720128558667810760110803788 (0xB019F533881AD1348136F64F998E8B4C)
Complete name : F:VideoFirst.Kill.2017.BDRip.1080p.ExKinoRay.mkv
Format : Matroska
Format version : Version 4 / Version 2
File size : 9.74 GiB
Duration : 1 h 41 min
Overall bit rate : 13.7 Mb/s
Encoded date : UTC 2017-09-08 20:01:19
Writing application : mkvmerge v15.0.0 ('Duel with the Devil') 64-bit
Writing library : libebml v1.3.5 + libmatroska v1.4.5

Video
ID : 1
Format : AVC
Format/Info : Advanced Video Codec
Format profile : High@L4.1
Format settings, CABAC : Yes
Format settings, RefFrames : 5 frames
Codec ID : V_MPEG4/ISO/AVC
Duration : 1 h 41 min
Bit rate : 12.5 Mb/s
Width : 1 920 pixels
Height : 800 pixels
Display aspect ratio : 2.40:1
Frame rate mode : Constant
Frame rate : 23.976 (24000/1001) FPS
Color space : YUV
Chroma subsampling : 4:2:0
Bit depth : 8 bits
Scan type : Progressive
Bits/(Pixel*Frame) : 0.339
Stream size : 8.87 GiB (91%)
Writing library : x264 core 142 r2431+42 c69a006 tMod [8-bit@all X86_64]
Encoding settings : cabac=1 / ref=5 / deblock=1:-3:-3 / analyse=0x3:0x133 / me=umh / subme=11 / psy=1 / fade_compensate=0.00 / psy_rd=1.05:0.15 / mixed_ref=1 / me_range=48 / chroma_me=1 / trellis=2 / 8x8dct=1 / cqm=0 / deadzone=21,11 / fast_pskip=1 / chroma_qp_offset=-3 / threads=16 / lookahead_threads=2 / sliced_threads=0 / nr=0 / decimate=0 / interlaced=0 / bluray_compat=0 / constrained_intra=0 / fgo=0 / bframes=9 / b_pyramid=2 / b_adapt=2 / b_bias=0 / direct=3 / weightb=1 / open_gop=0 / weightp=2 / keyint=240 / keyint_min=23 / scenecut=40 / intra_refresh=0 / rc_lookahead=60 / rc=2pass / mbtree=1 / bitrate=12500 / ratetol=1.0 / qcomp=0.70 / qpmin=0:0:0 / qpmax=69:69:69 / qpstep=4 / cplxblur=20.0 / qblur=0.5 / vbv_maxrate=50000 / vbv_bufsize=62500 / nal_hrd=none / filler=0 / ip_ratio=1.30 / aq=1:0.80 / aq-sensitivity=10.00 / aq-factor=1.00:1.00:1.00 / aq2=0 / aq3=0
Language : English
Default : Yes
Forced : No
Color range : Limited
Color primaries : BT.709
Transfer characteristics : BT.709
Matrix coefficients : BT.709

Audio #1
ID : 2
Format : AC-3
Format/Info : Audio Coding 3
Format settings, Endianness : Big
Codec ID : A_AC3
Duration : 1 h 41 min
Bit rate mode : Constant
Bit rate : 192 kb/s
Channel(s) : 2 channels
Channel positions : Front: L R
Sampling rate : 48.0 kHz
Frame rate : 31.250 FPS (1536 SPF)
Bit depth : 16 bits
Compression mode : Lossy
Stream size : 140 MiB (1%)
Title : MVO [Paradox&Omskbird]
Language : Russian
Service kind : Complete Main
Default : Yes
Forced : No

Audio #2
ID : 3
Format : AC-3
Format/Info : Audio Coding 3
Format settings, Endianness : Big
Codec ID : A_AC3
Duration : 1 h 41 min
Bit rate mode : Constant
Bit rate : 384 kb/s
Channel(s) : 6 channels
Channel positions : Front: L C R, Side: L R, LFE
Sampling rate : 48.0 kHz
Frame rate : 31.250 FPS (1536 SPF)
Bit depth : 16 bits
Compression mode : Lossy
Stream size : 279 MiB (3%)
Title : AVO [BadBajo]
Language : Russian
Service kind : Complete Main
Default : No
Forced : No

Audio #3
ID : 4
Format : AC-3
Format/Info : Audio Coding 3
Format settings, Endianness : Big
Codec ID : A_AC3
Duration : 1 h 41 min
Bit rate mode : Constant
Bit rate : 640 kb/s
Channel(s) : 6 channels
Channel positions : Front: L C R, Side: L R, LFE
Sampling rate : 48.0 kHz
Frame rate : 31.250 FPS (1536 SPF)
Bit depth : 16 bits
Compression mode : Lossy
Stream size : 466 MiB (5%)
Title : Original
Language : English
Service kind : Complete Main
Default : No
Forced : No

Text #1
ID : 5
Format : UTF-8
Codec ID : S_TEXT/UTF8
Codec ID/Info : UTF-8 Plain Text
Duration : 1 h 32 min
Bit rate : 44 b/s
Count of elements : 988
Stream size : 30.3 KiB (0%)
Title : Full
Language : English
Default : No
Forced : No

Text #2
ID : 6
Format : UTF-8
Codec ID : S_TEXT/UTF8
Codec ID/Info : UTF-8 Plain Text
Duration : 1 h 34 min
Bit rate : 48 b/s
Count of elements : 1127
Stream size : 33.8 KiB (0%)
Title : SDH
Language : English
Default : No
Forced : No

Menu
00:00:00.000 : en:Chapter 01
00:06:17.960 : en:Chapter 02
00:12:44.013 : en:Chapter 03
00:18:11.048 : en:Chapter 04
00:27:18.303 : en:Chapter 05
00:31:22.672 : en:Chapter 06
00:36:54.337 : en:Chapter 07
00:42:25.042 : en:Chapter 08
00:47:59.960 : en:Chapter 09
00:54:46.992 : en:Chapter 10
00:59:12.423 : en:Chapter 11
01:06:39.537 : en:Chapter 12
01:12:08.907 : en:Chapter 13
01:18:46.596 : en:Chapter 14
01:24:15.800 : en:Chapter 15
01:31:56.093 : en:Chapter 16

pb.wtf
!-Lexx- писал(а):

Сэмпл с AVI, для оценки звука.



Скачать Первое убийство через торрент http://s019.radikal.ru/i620/1709/ce/6f8bef53418b.jpg Скачать фильм Первое убийство через торрент бесплантно в хорошем качестве Описание: Фильм об опытном офицере, который расследует похищение мальчика, ставшего свидетелем разборки между банковскими грабителями. ... 10 10 4
Торрент: Зарегистрирован [2017-09-11 05:16] · скачан: 184 раз
Статус: T временная
Размер: 9.74 GB
Как cкачать? Как скачать Первое убийство через торрент | qTorrent

% Раздел Тема Автор DL S | L
Фильмы [HD 720p, 1080p] (Хороший звук DUB, MVO) [ 9.6 GB ] Первое убийство / First Kill [2017 BDRip 1080p] 2xMVO [ Paradox&Omskbird] bober100 Скачать
1 | 0
# Фильмы (мультфильмы) cо спонсором показа (Новинки AVI/MKV) [ 5.04 GB ] Первое убийство / First Kill [2017 BDRip 720p] MVO [Официальный звук] bober100 Скачать
2 | 0
Фильмы 2017 [DVDrip, WEB-DLRip, HDrip] (DUB, MVO) [ 1.46 GB ] Первое убийство / First Kill [2017 BDRip] MVO bober100 Скачать
1 | 0
T Фильмы 2017 [DVDrip, WEB-DLRip, HDrip] (DUB, MVO) [ 1.81 GB ] Первое убийство / First Kill [2017 HDRip-AVC] MVO [Paradox&Omskbird] - ExKinoRay Enigma2010 Скачать
1 | 0
Фильмы 2017 [DVDrip, WEB-DLRip, HDrip] (DUB, MVO) [ 1.47 GB ] Первое убийство / First Kill [2017 BDRip] MVO Twi7ter Скачать
11 | 0
Фильмы с авторской озвучкой [ 1.95 GB ] Первое убийство / First Kill [2017 HDRip-AVC] AVO [BadBajo] - ExKinoRay Enigma2010 Скачать
1 | 0
Фильмы с авторской озвучкой [ 7.41 GB ] Первое убийство / First Kill [2017 WEB-DL 1080p] AVO [BadBajo] bober100 Скачать
1 | 0

28-11-2019 20:33  

Отключить всю рекламу на сайте

    Дорогой пользователь! Огромная просьба, поблагодарите релизера, оцените раздачу и оставьте свои комментарий, если Вы скачали Первое убийство через торрент бесплатно! Внесите свою лепту в развитие PiratBit!
    Комментировать посты могут только пользователи прошедшие не сложную регистрацию
    Показать сообщения:    

    Первое убийство через торрент
    Скачать бесплатно Первое убийство
    Первое убийство скачать торрент
    Первое убийство смотреть онлайн
    Cкачать фильм Первое убийство бесплатно
    Первое убийство скачать торрент в хорошем качестве
    Первое убийство смотреть онлайн бесплатно в хорошем качестве


    Вы не можете начинать темы
    Вы не можете отвечать на сообщения
    Вы не можете редактировать свои сообщения
    Вы не можете удалять свои сообщения
    Вы не можете голосовать в опросах
    Вы не можете прикреплять файлы к сообщениям
    Вы можете скачивать файлы