новый адрес
Ссылка на приватное зеркало всего за 1$. Внимание количество ограничено!!!

iTunes

1+1

iTunes

мы

iTunes

1

iTunes

Чернобыль

iTunes

Ральф против интернета

Лицензия

ПШазам

Лицензия

Оно 2

Лицензия

30
pack

Вам бонус

ВАЖНО

!!Акция!!

Alien_RageХит недели

RePack

Resident Evil 21

ИГРА 18+

pack

RePack

jed

!!Акция!!

Alien_Rage

RePack

fifa19

RePack

Assassins Creed: Odyssey

RePack

NEED FOR SPEED™ PAYBACK

3 сезон

9 сезон

Бесстыжие 9 сезон

Все сериалы

все сериалы на PB.wtf

RePack

FAR CRY 5
Ребята, катастрофически не хватает 1900р. для оплаты серверов за Октябрь (всвязи с блокировками трафик упал в 3 раза), 1-2р., выручайте.
  

У тихой пристани (Эдуард Абалов, Тамаз Мелиава) [1958, СССР, комедия, DVDRip от AVP Studio] pb.wtf

У тихой пристани через торрент pb.wtf

Размер: 742 MB | Добавлен: 2 года 2 мес. назад | Торрент скачан:18 раз
Скачать  

11-09-2017 08:55 У тихой пристани Скачать торрент  

У тихой пристани
Страна: СССР
Производство: Мосфильм

Жанр: комедия
Год выпуска: 1958
Продолжительность: 01:08:56

Перевод: Не требуется
Cубтитры: нет
Оригинальная аудиодорожка: русский

Режиссер: Эдуард Абалов, Тамаз Мелиава

В ролях:
Владимир Ратомский, Василий Меркурьев, Татьяна Гурецкая, Афанасий Белов, Анатолий Кубацкий, Борис Новиков, Эммануил Геллер, Елизавета Лилина, Павел Волков, Валентин Брылеев, Александр Гумбург, Витя Ларин...
Об актёрах подробней

Описание:
Старые друзья — рабочий Колючкин (Владимир Ратомский) и актер Пушков (Василий Меркурьев) — уйдя на пенсию, решают серьезно заняться рыбной ловлей. Но всякий раз по дороге неугомонные старички замечают всевозможные недостатки и несовершенства общественной жизни — и принимают активное участие в их ликвидации. Вступая в борьбу с бюрократами, проходимцами и наглецами, герои часто попадают в анекдотические ситуации. Оказавшись на съёмочной площадке в ролях милиционеров, они вынуждены по воле случая исполнять обязанности cтражей закона и в жизни...

Источник: DVD5 R5
Качество видео: DVDRip
Формат видео: AVI

Видео: 672x496 (4:3), 25 fps, XviD ~ 1303 kbps avg, 0.156 bit/pixel
Аудио: 48 kHz, Dolby Digital AC3 2.0, 192 kbps

Раздача от:
Общее
Полное имя : U.tihoy.pristani...1958.DVDRip_[New-team]_by_AVP_Studio.avi
Формат : AVI
Формат/Информация : Audio Video Interleave
Размер файла : 742 Мбайт
Продолжительность : 1 ч. 8 м.
Общий поток : 1505 Кбит/сек
Программа кодирования : VirtualDubMod 1.5.10.3 | www.virtualdub-fr.org || (build 2550/release)
Библиотека кодирования : VirtualDubMod build 2550/release

Видео
Идентификатор : 0
Формат : MPEG-4 Visual
Профиль формата : Advanced Simple@L5
Параметр BVOP формата : 1
Параметр QPel формата : Нет
Параметр GMC формата : Без точки перехода
Параметр матрицы формата : Выборочная
Идентификатор кодека : XVID
Идентификатор кодека/Подсказка : XviD
Продолжительность : 1 ч. 8 м.
Битрейт : 1303 Кбит/сек
Ширина : 672 пикселя
Высота : 496 пикселей
Соотношение сторон : 4:3
Частота кадров : 25,000 кадров/сек
Цветовое пространство : YUV
Субдискретизация насыщенности : 4:2:0
Битовая глубина : 8 бит
Тип развёртки : Прогрессивная
Метод сжатия : С потерями
Бит/(Пиксели*Кадры) : 0.156
Размер потока : 643 Мбайт (87%)
Библиотека кодирования : XviD 73

Аудио
Идентификатор : 1
Формат : AC-3
Формат/Информация : Audio Coding 3
Параметр Endianness формата : Big
Идентификатор кодека : 2000
Продолжительность : 1 ч. 8 м.
Вид битрейта : Постоянный
Битрейт : 192 Кбит/сек
Каналы : 2 канала
Расположение каналов : Front: L R
Частота : 48,0 КГц
Частота кадров : 31,250 кадров/сек (1536 SPF)
Битовая глубина : 16 бит
Метод сжатия : С потерями
Размер потока : 94,7 Мбайт (13%)
Выравнивание : Разделение по промежуткам
Продолжительность промежутка : 40 мс. (1,00 видеокадр)
Время предзагрузки промежутка : 500 мс
pb.wtf



Скачать У тихой пристани через торрент http://s019.radikal.ru/i623/1709/e9/b4258392de10.png Скачать фильм У тихой пристани через торрент бесплантно в хорошем качестве Описание:Старые друзья — рабочий Колючкин (Владимир Ратомский) и актер Пушков (Василий Меркурьев) — уйдя на пенсию, решают серьезно ... 5 10 1
Info! Золотая раздача, скачанное не засчитывается.
Торрент: Зарегистрирован [2017-09-11 08:55] · скачан: 18 раз
Статус: √ проверено
Размер: 742 MB
Как cкачать? Как скачать У тихой пристани через торрент | qTorrent

% Раздел Тема Автор DL S | L
Кино СССР [ 744 MB ] У тихой пристани [1958 СССР DVDRip-AVC от AVP Studio] AVP Studio Скачать
2 | 0
    Дорогой пользователь! Огромная просьба, поблагодарите релизера, оцените раздачу и оставьте свои комментарий, если Вы скачали У тихой пристани через торрент бесплатно! Внесите свою лепту в развитие PiratBit!
    Комментировать посты могут только пользователи прошедшие не сложную регистрацию
    Показать сообщения:    

    У тихой пристани через торрент
    Скачать бесплатно У тихой пристани
    У тихой пристани скачать торрент
    У тихой пристани смотреть онлайн
    Cкачать фильм У тихой пристани бесплатно
    У тихой пристани скачать торрент в хорошем качестве
    У тихой пристани смотреть онлайн бесплатно в хорошем качестве


    Вы не можете начинать темы
    Вы не можете отвечать на сообщения
    Вы не можете редактировать свои сообщения
    Вы не можете удалять свои сообщения
    Вы не можете голосовать в опросах
    Вы не можете прикреплять файлы к сообщениям
    Вы можете скачивать файлы