Ссылка на приватное зеркало нашего сайта всего за 1$. Внимание количество ограничено!!!

2 сезон

iTunes

1 сезон

1

2 сезон

2 сезон

iTunes

1 сезон

RePack

30

Новинка

ВАЖНО

ИГРА 18+

pack

RePack

MK11
pack

Забери бонус

RePack

jed

!!Акция!!

Alien_Rage

RePack

fifa19

RePack

Assassins Creed: Odyssey

RePack

NEED FOR SPEED™ PAYBACK

4 сезон

9 сезон

Бесстыжие 9 сезон

Все сериалы

все сериалы на PB.wtf

RePack

FAR CRY 5
  

Зловещие мертвецы: Черная книга / Evil Dead (Федерико Альварес) [2013, Ужасы, ремейк, BD Remux 1080p] [Лицензия] DUB+2xAVO+MVO (ukr) pb.wtf

Зловещие мертвецы: Черная книга через торрент pb.wtf

Размер: 24.09 GB | Добавлен: 3 года 2 мес. назад | Торрент скачан:10 раз
Скачать  

11-09-2017 12:43 Зловещие мертвецы: Черная книга Скачать торрент  

Зловещие мертвецы: Черная книга / Evil DeadГод выпуска: 2013
Страна: США
Жанр: Ужасы, ремейк
Продолжительность: 01:31:18
Перевод: Дубляж [Лицензия], авторский
Субтитры: Русские, английские

Режиссер: Федерико Альварес

rating

В ролях:

Джейн Леви, Шайло Фернандес, Лу Тейлор Пуччи, Джессика Лукас, Элизабет Блэкмор, Феникс Коннолли, Джим МакЛарти, Сиан Дэвис, Стефен Баттерворф, Карл Виллетц

Описание:

Мать Дэвида и Мии очень тяжело умирала в психиатрической больнице и рядом с нею находилась только Миа, тогда ещё подросток. Прошло уже несколько лет, а она никак не могла забыть кошмарные предсмертные дни их буйно-помешанной матери и, с возрастом, Миа "подсела" на наркотики. Но после передозировки, когда врачи едва спасли её, она решает прекратить принимать наркотики. Среди её друзей была медсестра, решившая, что сумеет помочь ей без стационара. Для этого они: Миа, медсестра, Дэвид, его невеста и их лучший друг, - отправляются в старый, давно заброшенный дом Мии и Дэвида, находившийся в лесу. Добравшись они увидели, что дверь в дом была взломана, а в подвале они обнаружили атрибуты, используемые в чёрной магии и старинную книгу, которую их крайне заинтересовавшийся друг, начал немедленно изучать. Сумев проявить скрытые слова, он прочитал их вслух, чем невольно вызвал жуткого демона...

Качество: BD Remux 1080p
Формат: MKV
Видео кодек: H.264
Аудио кодек: AC3/DTS-HD

Видео: 24893 Кбит/с, 1920x1080, 23.976 Кадр/с
Аудио#1: Русский: AC3 / 5.1 / 48 kHz / 640 kbps / 16 bits - Дубляж
Аудио#2: Русский: DTS-HD Master Audio / 5.1 / 48 kHz / 3819 kbps / 24 bits (DTS Core: 5.1 / 48 kHz / 1510 kbps / 24 bits) - Авторский (Карповский)
Аудио#3: Русский: DTS-HD Master Audio / 5.1 / 48 kHz / 3819 kbps / 24 bits (DTS Core: 5.1 / 48 kHz / 1510 kbps / 24 bits) - Авторский (Алексей "Doctor_Joker" Матвеев)
Аудио#4: Английский: DTS-HD Master Audio / 5.1 / 48 kHz / 3956 kbps / 24 bits (DTS Core: 5.1 / 48 kHz / 1510 kbps / 24 bits) - Оригинал
Аудио#5: Украинский: AC3 / 5.1 / 48 kHz / 640 kbps / 16 bits - Профессиональный многоголосый (Omikron)
скриншот   скриншот   скриншот   скриншот   скриншот  

Общее
Уникальный идентификатор : 234628356318093589649688012649532288670 (0xB083C718E3C6B24EB06D9E7547FCEE9E)
Полное имя : D:\РЕМУКС!!!!!\Зловещие мертвецы. Черная книга.BDRemux.mkv
Формат : Matroska
Версия формата : Version 4 / Version 2
Размер файла : 24,1 Гбайт
Продолжительность : 1 ч. 31 м.
Режим общего битрейта : Переменный
Общий поток : 37,8 Мбит/сек
Название фильма : Зловещие мертвецы. Черная книга.BDRemux.thx:SPOMOPS
Дата кодирования : UTC 2016-04-18 04:45:29
Программа кодирования : mkvmerge v6.1.0 ('Old Devil') built on Mar 4 2013 09:10:42
Библиотека кодирования : libebml v1.3.0 + libmatroska v1.4.0
Attachements : poster.jpg

Видео
Идентификатор : 1
Формат : AVC
Формат/Информация : Advanced Video Codec
Профиль формата : High@L4.1
Параметр CABAC формата : Да
Параметр ReFrames формата : 2 кадра
Параметр GOP формата : M=1, N=10
Режим смешивания : Container profile=Unknown@0.0
Идентификатор кодека : V_MPEG4/ISO/AVC
Продолжительность : 1 ч. 31 м.
Вид битрейта : Переменный
Ширина : 1920 пикселей
Высота : 1080 пикселей
Соотношение сторон : 16:9
Режим частоты кадров : Постоянный
Частота кадров : 23,976 кадра/сек
Цветовое пространство : YUV
Субдискретизация насыщенности : 4:2:0
Битовая глубина : 8 бит
Тип развёртки : Прогрессивная
Default : Да
Forced : Нет

Аудио #1
Идентификатор : 2
Формат : AC-3
Формат/Информация : Audio Coding 3
Расширение режима : CM (complete main)
Параметр Endianness формата : Big
Идентификатор кодека : A_AC3
Продолжительность : 1 ч. 31 м.
Вид битрейта : Постоянный
Битрейт : 640 Кбит/сек
Каналы : 6 каналов
Расположение каналов : Front: L C R, Side: L R, LFE
Частота : 48,0 КГц
Битовая глубина : 16 бит
Метод сжатия : С потерями
Размер потока : 418 Мбайт (2%)
Заголовок : Русский АСЗ 640 kbps - Дубляж
Язык : Russian
Default : Да
Forced : Нет

Аудио #2
Идентификатор : 3
Формат : DTS
Формат/Информация : Digital Theater Systems
Профиль формата : MA / Core
Режим : 16
Параметр Endianness формата : Big
Идентификатор кодека : A_DTS
Продолжительность : 1 ч. 31 м.
Вид битрейта : Переменный
Битрейт : Неизвестно / 1509 Кбит/сек
Каналы : 6 каналов
Расположение каналов : Front: L C R, Side: L R, LFE
Частота : 48,0 КГц
Битовая глубина : 24 бит
Метод сжатия : Без потерь / Lossy
Заголовок : Русский DTS-HD MA 3819 kbps - А. Карповский
Язык : Russian
Default : Нет
Forced : Нет

Аудио #3
Идентификатор : 4
Формат : DTS
Формат/Информация : Digital Theater Systems
Профиль формата : MA / Core
Режим : 16
Параметр Endianness формата : Big
Идентификатор кодека : A_DTS
Продолжительность : 1 ч. 31 м.
Вид битрейта : Переменный
Битрейт : Неизвестно / 1509 Кбит/сек
Каналы : 6 каналов
Расположение каналов : Front: L C R, Side: L R, LFE
Частота : 48,0 КГц
Битовая глубина : 24 бит
Метод сжатия : Без потерь / Lossy
Заголовок : Русский DTS-HD MA 3819 kbps - Алексей "Doctor_Joker" Матвеев
Язык : Russian
Default : Нет
Forced : Нет

Аудио #4
Идентификатор : 5
Формат : DTS
Формат/Информация : Digital Theater Systems
Профиль формата : MA / Core
Режим : 16
Параметр Endianness формата : Big
Идентификатор кодека : A_DTS
Продолжительность : 1 ч. 31 м.
Вид битрейта : Переменный
Битрейт : Неизвестно / 1509 Кбит/сек
Каналы : 6 каналов
Расположение каналов : Front: L C R, Side: L R, LFE
Частота : 48,0 КГц
Битовая глубина : 24 бит
Метод сжатия : Без потерь / Lossy
Заголовок : Английский DTS-HD MA 3956 kbps
Язык : English
Default : Нет
Forced : Нет

Аудио #5
Идентификатор : 6
Формат : AC-3
Формат/Информация : Audio Coding 3
Расширение режима : CM (complete main)
Параметр Endianness формата : Big
Идентификатор кодека : A_AC3
Продолжительность : 1 ч. 31 м.
Вид битрейта : Постоянный
Битрейт : 640 Кбит/сек
Каналы : 6 каналов
Расположение каналов : Front: L C R, Side: L R, LFE
Частота : 48,0 КГц
Битовая глубина : 16 бит
Метод сжатия : С потерями
Задержка видео : 2 с. 0 мс.
Размер потока : 418 Мбайт (2%)
Заголовок : Украинский АСЗ 640 kbps - MVO, Omikron
Язык : Ukrainian
Default : Нет
Forced : Нет

Текст #1
Идентификатор : 7
Формат : UTF-8
Идентификатор кодека : S_TEXT/UTF8
Идентификатор кодека/Информация : UTF-8 Plain Text
Заголовок : Blu-ray CEE
Язык : Russian
Default : Нет
Forced : Нет

Текст #2
Идентификатор : 8
Формат : UTF-8
Идентификатор кодека : S_TEXT/UTF8
Идентификатор кодека/Информация : UTF-8 Plain Text
Заголовок : MartinaG
Язык : Russian
Default : Нет
Forced : Нет

Текст #3
Идентификатор : 9
Формат : UTF-8
Идентификатор кодека : S_TEXT/UTF8
Идентификатор кодека/Информация : UTF-8 Plain Text
Заголовок : Нотабеноид
Язык : Russian
Default : Нет
Forced : Нет

Текст #4
Идентификатор : 10
Формат : UTF-8
Идентификатор кодека : S_TEXT/UTF8
Идентификатор кодека/Информация : UTF-8 Plain Text
Язык : English
Default : Нет
Forced : Нет

Текст #5
Идентификатор : 11
Формат : UTF-8
Идентификатор кодека : S_TEXT/UTF8
Идентификатор кодека/Информация : UTF-8 Plain Text
Заголовок : SDH
Язык : English
Default : Нет
Forced : Нет

Текст #6
Идентификатор : 12
Формат : UTF-8
Идентификатор кодека : S_TEXT/UTF8
Идентификатор кодека/Информация : UTF-8 Plain Text
Заголовок : SDH-COLORED
Язык : English
Default : Нет
Forced : Нет

Меню
00:00:00.000 : :Chapter 01
00:05:10.309 : :Chapter 02
00:09:46.085 : :Chapter 03
00:14:24.028 : :Chapter 04
00:18:34.028 : :Chapter 05
00:23:14.308 : :Chapter 06
00:30:38.044 : :Chapter 07
00:35:34.797 : :Chapter 08
00:40:36.474 : :Chapter 09
00:49:43.480 : :Chapter 10
00:55:24.237 : :Chapter 11
01:01:35.189 : :Chapter 12
01:08:35.778 : :Chapter 13
01:14:05.983 : :Chapter 14
01:17:24.972 : :Chapter 15
01:20:36.247 : :Chapter 16

pb.wtf



Скачать Зловещие мертвецы: Черная книга через торрент http://img11.lostpic.net/2017/09/03/e91a677c4c642f60d223b33e87162510.jpg Скачать фильм Зловещие мертвецы: Черная книга через торрент бесплантно в хорошем качестве Описание: Мать Дэвида и Мии очень тяжело умирала в психиатрической больнице и рядом с нею находилась только Миа, тогда ещё подросток. ... 10 10 6
Info! Золотая раздача, скачанное не засчитывается.
Торрент: Зарегистрирован [2017-09-11 12:43] · скачан: 10 раз
Статус: √ проверено
Размер: 24.09 GB
Как cкачать? Как скачать Зловещие мертвецы: Черная книга через торрент | qTorrent

% Раздел Тема Автор DL S | L
Фильмы [HD 720p, 1080p] (Хороший звук DUB, MVO) [ 3.92 GB ] Зловещие мертвецы: Черная книга / Evil Dead [2013 BDRip 1080p HEVC ] Мичман37 Скачать
1 | 0
Фильмы с авторской озвучкой [ 3.94 GB ] Зловещие мертвецы: Черная книга / Evil Dead [2013 BDRip 720p] [Unrated] AVO potroks Скачать
1 | 0
Фильмы (HD 720p, 1080p) (48-60 fps) [ 9.74 GB ] Зловещие мертвецы: Черная книга / Evil Dead [2013 BDRip 1080p 60fps ] от R.G. HD-Films Ворон Скачать
1 | 0
Фильмы [HD 720p, 1080p] (Хороший звук DUB, MVO) [ 13.48 GB ] Зловещие мертвецы: Черная книга / Evil Dead [2013 BDRip 1080p - [ / BD CEE] Ворон Скачать
1 | 0
Фильмы 2013 [DVDrip, WEB-DLRip, HDrip] [ 2.32 GB ] Зловещие мертвецы: Черная книга / Evil Dead [ 2013 BDRip ] Dub + AVO + VO + Original + Subs читерас Скачать
1 | 0
Фильмы 2013 [DVDrip, WEB-DLRip, HDrip] [ 2.05 GB ] Зловещие мертвецы: Черная книга / Evil Dead [2013 HDRip лицензия] coc900 Скачать
1 | 0
Фильмы 2013 [DVDrip, WEB-DLRip, HDrip] [ 1.45 GB ] Зловещие мертвецы: Черная книга / Evil Dead [2013 HDRip] DUB [ лицензия ] Ворон Скачать
1 | 0

28-11-2019 20:33  

Отключить всю рекламу на сайте

    Дорогой пользователь! Огромная просьба, поблагодарите релизера, оцените раздачу и оставьте свои комментарий, если Вы скачали Зловещие мертвецы: Черная книга через торрент бесплатно! Внесите свою лепту в развитие PiratBit!
    Комментировать посты могут только пользователи прошедшие не сложную регистрацию
    Показать сообщения:    

    Зловещие мертвецы: Черная книга через торрент
    Скачать бесплатно Зловещие мертвецы: Черная книга
    Зловещие мертвецы: Черная книга скачать торрент
    Зловещие мертвецы: Черная книга смотреть онлайн
    Cкачать фильм Зловещие мертвецы: Черная книга бесплатно
    Зловещие мертвецы: Черная книга скачать торрент в хорошем качестве
    Зловещие мертвецы: Черная книга смотреть онлайн бесплатно в хорошем качестве


    Вы не можете начинать темы
    Вы не можете отвечать на сообщения
    Вы не можете редактировать свои сообщения
    Вы не можете удалять свои сообщения
    Вы не можете голосовать в опросах
    Вы не можете прикреплять файлы к сообщениям
    Вы можете скачивать файлы