2 сезон

iTunes

MVO

1

2 сезон

iTunes

iTunes

1 сезон

RePack

30

Новинка

ВАЖНО

ИГРА 18+

pack

RePack

MK11
pack

Легкие деньги

RePack

jed

RePack

fifa19

RePack

RDR2

RePack

NEED FOR SPEED™ PAYBACK

4 сезон

9 сезон

Бесстыжие 9 сезон

Все сериалы

все сериалы на PB.wtf

RePack

FAR CRY 5

Anonymous, доброе утро, мы не успеваем собрать деньги на оплату серверов за декабрь и январь, помогите нам пожалуйста в это трудное время. В качестве благодарности мы отключим Вам всю рекламу на сайте (укажите свой ник в строку Ваше имя)!

×
  
Magnet ссылка

Над глубиной: Хроника выживания / Cage Dive (Джералд Рашионато) [2017, ужасы, триллер, драма, WEB-DLRip-AVC] DUB [iTunes] pb.wtf

Над глубиной: Хроника выживания через торрент pb.wtf

Размер: 2.51 GB | Добавлен: 3 года 4 мес. назад | Торрент скачан:285 раз
Скачать  

11-09-2017 18:22 Над глубиной: Хроника выживания Скачать торрент  

Над глубиной: Хроника выживания / Cage DiveГод выпуска: 2017
Страна: Австралия
Жанр: ужасы, триллер, драма
Продолжительность: 01:16:57
Перевод: Дубляж iTunes
Субтитры: отсутствуют
Реклама: Отсутствует

Режиссер: Джералд Рашионато

rating

В ролях:

Джоэль Хоган, Джош Поттхофф, Меган Пета Хилл, Пит Вэлли, Марк Фелл, Кристофер Коллен, Тара Рэйт, Крис Бэс

Описание:

Три американских студента решили записать на видео свой экстремальный отдых: глубоководное погружение в клетке к большой белой акуле в Южной Австралии. Весёлое приключение — такой забавой это казалось для друзей. Но катастрофический поворот событий расставил всё по своим местам: друзья оказались в открытом море наедине с большой белой акулой...


Качество: WEB-DLRip-AVC
Формат: MKV
Видео кодек: H.264
Аудио кодек: AC3

Видео: 1024x576 (16:9), 23.976 fps, x264 ~3690 kbps avg, 0.261 bit/pixel
Аудио#1: 48 kHz, AC3 Dolby Digital, 3/2 (L,C,R,l,r) + LFE ch, ~384.00 kbps avg | RUS (iTunes)
Аудио#2: 48 kHz, AC3 Dolby Digital, 3/2 (L,C,R,l,r) + LFE ch, ~384.00 kbps avg | ENG
скриншот   скриншот   скриншот   скриншот   скриншот  

Общее
Уникальный идентификатор : 221463846708537401307441302695645082924 (0xA69C62A9695DCA198158D9C7FAE4F52C)
Полное имя : D:Cage.Dive.2017.WEB-DLRip(AVC).OlLanDGroup.mkv
Формат : Matroska
Версия формата : Version 2
Размер файла : 2,51 Гбайт
Продолжительность : 1 ч. 20 м.
Общий поток : 4457 Кбит/сек
Название фильма : Cage.Dive.2017 #TorpedoUK#
Дата кодирования : UTC 2017-09-11 13:37:18
Программа кодирования : mkvmerge v7.8.0 ('River Man') 32bit built on Apr 3 2015 12:11:22
Библиотека кодирования : libebml v1.3.1 + libmatroska v1.4.2
Обложка : Yes
Attachments : cover_land.jpg / small_cover.jpg / small_cover_land.jpg / cover.jpg

Видео
Идентификатор : 1
Формат : AVC
Формат/Информация : Advanced Video Codec
Профиль формата : High@L4.1
Параметр CABAC формата : Да
Параметр ReFrames формата : 10 кадров
Идентификатор кодека : V_MPEG4/ISO/AVC
Продолжительность : 1 ч. 20 м.
Битрейт : 3690 Кбит/сек
Ширина : 1024 пикселя
Высота : 576 пикселей
Соотношение сторон : 16:9
Режим частоты кадров : Постоянный
Частота кадров : 23,976 (24000/1001) кадра/сек
Цветовое пространство : YUV
Субдискретизация насыщенности : 4:2:0
Битовая глубина : 8 бит
Тип развёртки : Прогрессивная
Бит/(Пиксели*Кадры) : 0.261
Размер потока : 2,03 Гбайт (81%)
Библиотека кодирования : x264 core 146 r2538 121396c
Настройки программы : cabac=1 / ref=10 / deblock=1:-3:-3 / analyse=0x3:0x133 / me=umh / subme=11 / psy=1 / psy_rd=1.00:0.07 / mixed_ref=1 / me_range=48 / chroma_me=1 / trellis=2 / 8x8dct=1 / cqm=0 / deadzone=21,11 / fast_pskip=0 / chroma_qp_offset=-3 / threads=6 / lookahead_threads=1 / sliced_threads=0 / nr=0 / decimate=0 / interlaced=0 / bluray_compat=0 / constrained_intra=0 / bframes=10 / b_pyramid=2 / b_adapt=2 / b_bias=0 / direct=3 / weightb=1 / open_gop=0 / weightp=2 / keyint=240 / keyint_min=23 / scenecut=40 / intra_refresh=0 / rc_lookahead=40 / rc=2pass / mbtree=0 / bitrate=3690 / ratetol=1.0 / qcomp=0.60 / qpmin=0 / qpmax=69 / qpstep=4 / cplxblur=20.0 / qblur=0.5 / vbv_maxrate=50000 / vbv_bufsize=62500 / nal_hrd=none / filler=0 / ip_ratio=1.40 / pb_ratio=1.30 / aq=1:1.00
Язык : English
Default : Да
Forced : Нет

Аудио #1
Идентификатор : 2
Формат : AC-3
Формат/Информация : Audio Coding 3
Расширение режима : CM (complete main)
Параметр Endianness формата : Big
Идентификатор кодека : A_AC3
Продолжительность : 1 ч. 20 м.
Вид битрейта : Постоянный
Битрейт : 384 Кбит/сек
Каналы : 6 каналов
Расположение каналов : Front: L C R, Side: L R, LFE
Частота : 48,0 КГц
Частота кадров : 31,250 кадров/сек (1536 spf)
Битовая глубина : 16 бит
Метод сжатия : С потерями
Размер потока : 221 Мбайт (9%)
Заголовок : iTunes
Язык : Russian
Default : Да
Forced : Нет

Аудио #2
Идентификатор : 3
Формат : AC-3
Формат/Информация : Audio Coding 3
Расширение режима : CM (complete main)
Параметр Endianness формата : Big
Идентификатор кодека : A_AC3
Продолжительность : 1 ч. 20 м.
Вид битрейта : Постоянный
Битрейт : 384 Кбит/сек
Каналы : 6 каналов
Расположение каналов : Front: L C R, Side: L R, LFE
Частота : 48,0 КГц
Частота кадров : 31,250 кадров/сек (1536 spf)
Битовая глубина : 16 бит
Метод сжатия : С потерями
Размер потока : 221 Мбайт (9%)
Заголовок : Original
Язык : English
Default : Нет
Forced : Нет

Меню
00:00:00.000 : en:1
00:02:05.000 : en:2
00:11:09.000 : en:3
00:20:51.000 : en:4
00:27:16.000 : en:5
00:37:57.000 : en:6
00:49:02.000 : en:7
01:01:31.000 : en:8
01:12:36.000 : en:9

pb.wtf



Скачать Над глубиной: Хроника выживания через торрент http://lostpix.com/img/2017-09/11/a1u5odto4dvtw3zru2u5c0zp7.jpg Скачать фильм Над глубиной: Хроника выживания через торрент бесплантно в хорошем качестве Описание: Три американских студента решили записать на видео свой экстремальный отдых: глубоководное погружение в клетке к большой белой ... 7.6 10 13
Торрент: Зарегистрирован [2017-09-11 18:22] · скачан: 285 раз
Статус: √ проверено
Размер: 2.51 GB
Как cкачать? Как скачать Над глубиной: Хроника выживания через торрент | UTorrent

% Раздел Тема Автор DL S | L
Фильмы 2017 [DVDrip, WEB-DLRip, HDrip] (DUB, MVO) [ 1.46 GB ] Над глубиной: Хроника выживания / Cage Dive [2017 BDRip] DUB [ R5] bober100 Скачать
1 | 0
Фильмы (WEB-DL 720p, 1080p) [ 2.69 GB ] Над глубиной: Хроника выживания / Cage Dive [2017 WEB-DL 720p] bober100 Скачать
1 | 0
Фильмы (Blu-ray, BD-Remux, HDDVD) [ 15.04 GB ] Над глубиной: Хроника выживания / Cage Dive [2017 BD Remux ] Бумер Скачать
1 | 0
Фильмы (WEB-DL 720p, 1080p) [ 3.17 GB ] Над глубиной: Хроника выживания / Cage Dive [2017 WEB-DL 1080p] bober100 Скачать
1 | 0

28-11-2019 20:33  

Отключить всю рекламу на сайте

13-09-2017 05:44 Над глубиной: Хроника выживания Скачать торрент  

Чушьpb.wtf



    Дорогой пользователь! Огромная просьба, поблагодарите релизера, оцените раздачу и оставьте свои комментарий, если Вы скачали Над глубиной: Хроника выживания через торрент бесплатно! Внесите свою лепту в развитие PiratBit!
    Комментировать посты могут только пользователи прошедшие не сложную регистрацию
    Показать сообщения:    

    Над глубиной: Хроника выживания через торрент
    Скачать бесплатно Над глубиной: Хроника выживания
    Над глубиной: Хроника выживания скачать торрент
    Над глубиной: Хроника выживания смотреть онлайн
    Cкачать фильм Над глубиной: Хроника выживания бесплатно
    Над глубиной: Хроника выживания скачать торрент в хорошем качестве
    Над глубиной: Хроника выживания смотреть онлайн бесплатно в хорошем качестве


    Вы не можете начинать темы
    Вы не можете отвечать на сообщения
    Вы не можете редактировать свои сообщения
    Вы не можете удалять свои сообщения
    Вы не можете голосовать в опросах
    Вы не можете прикреплять файлы к сообщениям
    Вы можете скачивать файлы