Ссылка на приватное зеркало нашего сайта всего за 1$. Внимание количество ограничено!!!

2 сезон

iTunes

1 сезон

1

2 сезон

2 сезон

iTunes

1 сезон

RePack

30

Ultimate

ВАЖНО

ИГРА 18+

pack

RePack

MK11
pack

Забери бонус

RePack

jed

!!Акция!!

Alien_Rage

RePack

fifa19

RePack

Assassins Creed: Odyssey

RePack

NEED FOR SPEED™ PAYBACK

4 сезон

9 сезон

Бесстыжие 9 сезон

Все сериалы

все сериалы на PB.wtf

RePack

FAR CRY 5
  

Страйк / Strike / Сезон: 2 / Серии 1-2 из 2 (Майкл Кейллор, Кирон Хоукс, Чарльз Стёрридж) [2017 г., триллер, драма, криминал, детектив, HDTVRip 1080p] MVO [BaibaKo] pb.wtf

Страйк через торрент pb.wtf

Размер: 3.32 GB | Добавлен: 3 года 2 мес. назад | Торрент скачан:16 раз
Скачать  

11-09-2017 23:45 Страйк Скачать торрент  

Страйк / Strike
  • Год выпуска: 2017
  • Страна: США, BBC One, BBC Television Centre, Bronte Film and TV
  • Жанр: триллер, драма, криминал, детектив
  • Продолжительность: ~ 00:57:00 (Серия)
  • Перевод: Профессиональный многоголосый [BaibaKo]
  • Режиссер: Майкл Кейллор, Кирон Хоукс, Чарльз Стёрридж


  • В ролях: Том Бёрк, Холлидей Грейнджер, Керр Логан, Киллиан Скотт, Йен Кейр Аттард, Кэйтлин Иннес Эдвардс, Лео Билл, Бен Кромптон, Аделл Леонс и др.


    Корморан Страйк — ветеран афганской войны, ставший частным детективом — работает в небольшом офисе на Датской улице в Лондоне. В расследованиях ему помогает секретарь Робин Эллакотт. Несмотря на физические и душевные травмы, уникальная проницательность и опыт Страйка позволяют ему раскрыть самые запутанные дела, которые полицию ставят в тупик.
  • Качество: HDTVRip 1080p
  • Формат: : MKV
  • Видео кодек: AVC
  • Аудио кодек: AC3
  • Видео: 3498 Кбит/сек, 1920*1080 (16:9), в 25,000 кадров/сек, AVC
  • Аудио:1 Русский 384 Кбит/сек, 48,0 КГц, 16 бит, 6 каналов, AC-3 |[BaibaKo]|
  • Аудио:1 Английский 384 Кбит/сек, 48,0 КГц, 16 бит, 6 каналов, AC-3
  • Релиз от: GEKADOL

    Внимание! Раздача ведётся путём добавления новых серий; при каждом добавлении создаётся новый торрент. Чтобы начать докачку новой серии, пользователям необходимо сделать следующее:
    (1) остановить скачивание,
    (2) удалить старый торрент у себя из клиента (старые серии удалять не надо),
    (3) скачать новый торрент и запустить его у себя в клиенте вместо старого, при этом указать клиенту путь в старую папку куда и должно происходить скачивание новых серий.
    Ваш клиент при этом должен произвести хеширование (проверку) старой папки (если не производит сам - помогите ему сделать это), и будет докачивать только те серии которых у вас ещё нет. Старые серии при этом не удаляются, а продолжают раздаваться!
    Eсли вы уже удалили старые серии, то предотвратить повторную закачку старых серий можно, отжав галочку в соответствующих местах при запуске нового торрента. По возможности, желательно не удалять старые серии как можно дольше чтобы релизёр не столько продолжал раздавать старые серии, а смог сконцентрироваться на новых.


    Общее
    Уникальный идентификатор : 193021608638873304745262648102609569380 (0x91369C0EB071FFA68D84063781FD4664)
    Полное имя : F:\Страйк (Strike 2)\Strike.s02e01.HDTV1080p.Rus.Eng.BaibaKo.tv.mkv
    Формат : Matroska
    Версия формата : Version 4 / Version 2
    Размер файла : 1,69 Гбайт
    Продолжительность : 56 м. 32 с.
    Общий поток : 4268 Кбит/сек
    Дата кодирования : UTC 2017-09-11 23:42:39
    Программа кодирования : mkvmerge v7.1.0 ('Good Love') 64bit built on Jul 27 2014 13:06:55
    Библиотека кодирования : libebml v1.3.0 + libmatroska v1.4.1

    Видео
    Идентификатор : 1
    Формат : AVC
    Формат/Информация : Advanced Video Codec
    Профиль формата : High@L4
    Параметр CABAC формата : Да
    Параметр RefFrames формата : 4 кадра
    Идентификатор кодека : V_MPEG4/ISO/AVC
    Продолжительность : 56 м. 32 с.
    Битрейт : 3498 Кбит/сек
    Ширина : 1920 пикселей
    Высота : 1080 пикселей
    Соотношение сторон : 16:9
    Режим частоты кадров : Постоянный
    Частота кадров : 25,000 кадров/сек
    Стандарт вещания : Component
    Цветовое пространство : YUV
    Субдискретизация насыщенности : 4:2:0
    Битовая глубина : 8 бит
    Тип развёртки : MBAFF
    Метод сохранения типа развёртки : Чередующиеся поля
    Порядок развёртки : Верхнее поле первое
    Бит/(Пиксели*Кадры) : 0.067
    Размер потока : 1,38 Гбайт (82%)
    Default : Нет
    Forced : Нет
    Цветовой диапазон : Limited
    Основные цвета : BT.709
    Характеристики трансфера : BT.709
    Коэффициенты матрицы : BT.709

    Аудио #1
    Идентификатор : 2
    Формат : AC-3
    Формат/Информация : Audio Coding 3
    Параметр Endianness формата : Big
    Идентификатор кодека : A_AC3
    Продолжительность : 56 м. 32 с.
    Вид битрейта : Постоянный
    Битрейт : 384 Кбит/сек
    Каналы : 6 каналов
    Расположение каналов : Front: L C R, Side: L R, LFE
    Частота : 48,0 КГц
    Частота кадров : 31,250 кадров/сек (1536 SPF)
    Битовая глубина : 16 бит
    Метод сжатия : С потерями
    Задержка видео : 16 мс.
    Размер потока : 155 Мбайт (9%)
    Язык : Russian
    ServiceKind/String : Complete Main
    Default : Да
    Forced : Нет

    Аудио #2
    Идентификатор : 3
    Формат : AC-3
    Формат/Информация : Audio Coding 3
    Параметр Endianness формата : Big
    Идентификатор кодека : A_AC3
    Продолжительность : 56 м. 32 с.
    Вид битрейта : Постоянный
    Битрейт : 384 Кбит/сек
    Каналы : 6 каналов
    Расположение каналов : Front: L C R, Side: L R, LFE
    Частота : 48,0 КГц
    Частота кадров : 31,250 кадров/сек (1536 SPF)
    Битовая глубина : 16 бит
    Метод сжатия : С потерями
    Размер потока : 155 Мбайт (9%)
    Язык : English
    ServiceKind/String : Complete Main
    Default : Нет
    Forced : Нет


    Скриншоты:
    скриншот   скриншот   скриншот   скриншот   скриншот   скриншот   скриншот  
    скриншот  

    Раздача ведётся путём добавления новых серий. Добавлена 2 серия (19.09.2017).Просьба перекачать торрент файл.

    pb.wtf



  • Скачать Страйк через торрент http://pic1.kartinco.top/images/11/g33ir.jpg Скачать фильм Страйк через торрент бесплантно в хорошем качестве qw.png Корморан Страйк — ветеран афганской войны, ставший частным детективом — работает в небольшом офисе на Датской улице в Лондоне. В ... 10 10 4
    Info! Золотая раздача, скачанное не засчитывается.
    Торрент: Зарегистрирован [2017-09-19 00:30] · скачан: 16 раз
    Статус: √ проверено
    Размер: 3.32 GB
    Как cкачать? Как скачать Страйк через торрент | qTorrent

    % Раздел Тема Автор DL S | L
    Зарубежные сериалы [ 1.42 GB ] Страйк / Strike / Сезон: 3 / Серии 1-2 из 2 [2018 HDTVRip] [MVO] killermax2013 Скачать
    1 | 0
    Зарубежные сериалы [ 1.3 GB ] Страйк / Strike / Сезон: 3 / Серии 1-2 из 2 [2018 HDTVRip] MVO [BaibaKo] GEKADOL Скачать
    1 | 0
    Зарубежные сериалы [ 4.36 GB ] Страйк / Strike / Сезон: 1-2 / Серии 1-5 из 5 [2017 HDTVRip] [MVO] killermax2013 Скачать
    1 | 0


    Последний раз редактировалось: GEKADOL (2017-09-19 00:43), всего редактировалось 2 раз(а)

    28-11-2019 20:33  

    Отключить всю рекламу на сайте

    12-09-2017 15:10 Страйк Скачать торрент  

    УРА СПАСИБО за хорошее качество видео и аудио. Ждём продолжения.ОПЕРАТИВНО !pb.wtf



    13-09-2017 05:52 Страйк Скачать торрент  

    ramario2 писал(а):

    УРА СПАСИБО за хорошее качество видео и аудио. Ждём продолжения.ОПЕРАТИВНО !

    pb.wtf



      Дорогой пользователь! Огромная просьба, поблагодарите релизера, оцените раздачу и оставьте свои комментарий, если Вы скачали Страйк через торрент бесплатно! Внесите свою лепту в развитие PiratBit!
      Комментировать посты могут только пользователи прошедшие не сложную регистрацию
      Показать сообщения:    

      Страйк через торрент
      Скачать бесплатно Страйк
      Страйк скачать торрент
      Страйк смотреть онлайн
      Cкачать фильм Страйк бесплатно
      Страйк скачать торрент в хорошем качестве
      Страйк смотреть онлайн бесплатно в хорошем качестве


      Вы не можете начинать темы
      Вы не можете отвечать на сообщения
      Вы не можете редактировать свои сообщения
      Вы не можете удалять свои сообщения
      Вы не можете голосовать в опросах
      Вы не можете прикреплять файлы к сообщениям
      Вы можете скачивать файлы