Ссылка на приватное зеркало нашего сайта всего за 1$. Внимание количество ограничено!!!

2 сезон

iTunes

1 сезон

1

2 сезон

2 сезон

iTunes

1 сезон

RePack

30

Новинка

ВАЖНО

ИГРА 18+

pack

RePack

MK11
pack

Забери бонус

RePack

jed

!!Акция!!

Alien_Rage

RePack

fifa19

RePack

Assassins Creed: Odyssey

RePack

NEED FOR SPEED™ PAYBACK

4 сезон

9 сезон

Бесстыжие 9 сезон

Все сериалы

все сериалы на PB.wtf

RePack

FAR CRY 5
  

Раскосяченные / Disjointed / Сезон 1 / Серии 1-20 из 20 (Ричи Кин, Джеймс Берроуз, Гай Дистад) [2017, комедия, WEBRip 720p] MVO [Jaskier] pb.wtf

Раскосяченные через торрент pb.wtf

Размер: 15.87 GB | Добавлен: 1 год 8 мес. назад | Торрент скачан:7 раз
Скачать  

12-09-2017 05:09 Раскосяченные Скачать торрент  

Раскосяченные / DisjointedГод выпуска: 2017
Страна: США
Жанр: комедия
Продолжительность: 10 x 00:30:00
Перевод: Профессиональный (многоголосый) | Jaskier
Субтитры: Английские, испанские, французские, немецкие, итальянские

Режиссер: Ричи Кин, Джеймс Берроуз, Гай Дистад

rating

В ролях:

Аарон Мотен, Тони Белл, Дуги Болдуин, Элизабет Альдерфер, Кэти Бэйтс, Элизабет Хо, Бетси Содаро, Крис Редд, Николь Салливан, Майкл Трукко

Описание:

Рут — сторонница легализации травки, достижению которой она посвятила практически всю свою жизнь, и её мечта в итоге сбывается, когда женщина становится владелицей точки по продаже лечебной марихуаны в Лос-Анджелесе. Компанию ей составят пару продавцов «лекарств», двадцатилетний сын героини и глубоко замороченный охранник.

Качество: WEBRip 720p
Формат: MKV
Видео кодек: H.264
Аудио кодек: AC3

Видео: ~ 4220 Кбит/с, 1208x720
Аудио#1: AC3, 48,0 КГц, 6 ch, 384 kbps - [RUS]
Аудио#2: AC3, 48,0 КГц, 6 ch, 384 kbps - [ENG]
скриншот   скриншот   скриншот  

Общее
Уникальный идентификатор : 205065979602667462530994844156767280765 (0x9A464564CA51267F8CEE130E77C49E7D)
Полное имя : D:\Disjointed. Season 1 (WEBRip l 720p l Jaskier)\Disjointed.S01E01.Omega.Strain.720p.Jaskier.Rus.Eng.mkv
Формат : Matroska
Версия формата : Version 4 / Version 2
Размер файла : 975 Мбайт
Продолжительность : 27 м. 36 с.
Режим общего битрейта : Переменный
Общий поток : 4940 Кбит/сек
Дата кодирования : UTC 2017-09-05 13:14:17 / UTC 2017-07-20 05:53:54
Программа кодирования : mkvmerge v15.0.0 ('Duel with the Devil') 64-bit
Библиотека кодирования : libebml v1.3.5 + libmatroska v1.4.5 / Lavf58.0.0

Видео
Идентификатор : 1
Формат : AVC
Формат/Информация : Advanced Video Codec
Профиль формата : Main@L3.1
Параметр CABAC формата : Да
Параметр ReFrames формата : 3 кадра
Идентификатор кодека : V_MPEG4/ISO/AVC
Продолжительность : 27 м. 36 с.
Вид битрейта : Переменный
Битрейт : 4220 Кбит/сек
Максимальный битрейт : 6330 Кбит/сек
Ширина : 1280 пикселей
Высота : 720 пикселей
Соотношение сторон : 16:9
Режим частоты кадров : Постоянный
Частота кадров : 23,976 (24000/1001) кадра/сек
Цветовое пространство : YUV
Субдискретизация насыщенности : 4:2:0
Битовая глубина : 8 бит
Тип развёртки : Прогрессивная
Бит/(Пиксели*Кадры) : 0.191
Размер потока : 804 Мбайт (82%)
Библиотека кодирования : x264 core 118
Настройки программы : cabac=1 / ref=3 / deblock=1:0:0 / analyse=0x1:0x111 / me=umh / subme=10 / psy=1 / psy_rd=1.00:0.00 / mixed_ref=1 / me_range=24 / chroma_me=1 / trellis=2 / 8x8dct=0 / cqm=0 / deadzone=21,11 / fast_pskip=1 / chroma_qp_offset=-2 / threads=8 / sliced_threads=0 / nr=0 / decimate=1 / interlaced=0 / bluray_compat=0 / constrained_intra=0 / bframes=2 / b_pyramid=0 / b_adapt=2 / b_bias=0 / direct=3 / weightb=1 / open_gop=0 / weightp=2 / keyint=48 / keyint_min=25 / scenecut=0 / intra_refresh=0 / rc_lookahead=0 / rc=2pass / mbtree=1 / bitrate=4220 / ratetol=1.0 / qcomp=0.50 / qpmin=6 / qpmax=51 / qpstep=4 / cplxblur=20.0 / qblur=0.5 / vbv_maxrate=6330 / vbv_bufsize=8440 / nal_hrd=vbr / ip_ratio=1.40 / aq=1:1.00
Default : Да
Forced : Нет
Statistics Tags Issue : mkvmerge v15.0.0 ('Duel with the Devil') 64-bit 2017-09-05 13:14:17 / mkvmerge v15.0.0 ('Duel with the Devil') 64-bit 2017-09-05 13:14:17 / UTC 2017-07-20 05:53:54
FromStats_BitRate : 4169711
FromStats_Duration : 00:27:36.030000000
FromStats_FrameCount : 39705
FromStats_StreamSize : 863145910

Аудио #1
Идентификатор : 2
Формат : AC-3
Формат/Информация : Audio Coding 3
Расширение режима : CM (complete main)
Параметр Endianness формата : Big
Идентификатор кодека : A_AC3
Продолжительность : 27 м. 36 с.
Вид битрейта : Постоянный
Битрейт : 384 Кбит/сек
Каналы : 6 каналов
Расположение каналов : Front: L C R, Side: L R, LFE
Частота : 48,0 КГц
Частота кадров : 31,250 кадров/сек (1536 spf)
Метод сжатия : С потерями
Размер потока : 75,8 Мбайт (8%)
Заголовок : Jaskier
Язык : Russian
Default : Да
Forced : Нет
Statistics Tags Issue : mkvmerge v15.0.0 ('Duel with the Devil') 64-bit 2017-09-05 13:14:17 / mkvmerge v15.0.0 ('Duel with the Devil') 64-bit 2017-09-05 13:14:17 / UTC 2017-07-20 05:53:54
FromStats_BitRate : 384000
FromStats_Duration : 00:27:36.224000000
FromStats_FrameCount : 51757
FromStats_StreamSize : 79498752

Аудио #2
Идентификатор : 3
Формат : AC-3
Формат/Информация : Audio Coding 3
Расширение режима : CM (complete main)
Параметр Endianness формата : Big
Идентификатор кодека : A_AC3
Продолжительность : 27 м. 36 с.
Вид битрейта : Постоянный
Битрейт : 384 Кбит/сек
Каналы : 6 каналов
Расположение каналов : Front: L C R, Side: L R, LFE
Частота : 48,0 КГц
Частота кадров : 31,250 кадров/сек (1536 spf)
Метод сжатия : С потерями
Размер потока : 75,8 Мбайт (8%)
Язык : English
Default : Нет
Forced : Нет
Дата кодирования : UTC 2017-07-20 05:53:54
HANDLER_NAME : Audio Media Handler
Statistics Tags Issue : mkvmerge v15.0.0 ('Duel with the Devil') 64-bit 2017-09-05 13:14:17 / mkvmerge v15.0.0 ('Duel with the Devil') 64-bit 2017-09-05 13:14:17 / UTC 2017-07-20 05:53:54
FromStats_BitRate : 384000
FromStats_Duration : 00:27:36.224000000
FromStats_FrameCount : 51757
FromStats_StreamSize : 79498752

Текст #1
Идентификатор : 4
Формат : UTF-8
Идентификатор кодека : S_TEXT/UTF8
Идентификатор кодека/Информация : UTF-8 Plain Text
Заголовок : Forced
Язык : English
Default : Да
Forced : Да
Statistics Tags Issue : mkvmerge v15.0.0 ('Duel with the Devil') 64-bit 2017-09-05 13:14:17 / mkvmerge v15.0.0 ('Duel with the Devil') 64-bit 2017-09-05 13:14:17 / UTC 2017-07-20 05:53:54
FromStats_BitRate : 3
FromStats_Duration : 00:13:04.016000000
FromStats_FrameCount : 10
FromStats_StreamSize : 391

Текст #2
Идентификатор : 5
Формат : UTF-8
Идентификатор кодека : S_TEXT/UTF8
Идентификатор кодека/Информация : UTF-8 Plain Text
Заголовок : English
Язык : English
Default : Нет
Forced : Нет
Statistics Tags Issue : mkvmerge v15.0.0 ('Duel with the Devil') 64-bit 2017-09-05 13:14:17 / mkvmerge v15.0.0 ('Duel with the Devil') 64-bit 2017-09-05 13:14:17 / UTC 2017-07-20 05:53:54
FromStats_BitRate : 83
FromStats_Duration : 00:26:51.710000000
FromStats_FrameCount : 496
FromStats_StreamSize : 16756

Текст #3
Идентификатор : 6
Формат : UTF-8
Идентификатор кодека : S_TEXT/UTF8
Идентификатор кодека/Информация : UTF-8 Plain Text
Заголовок : Spanish
Язык : Spanish
Default : Нет
Forced : Нет
Statistics Tags Issue : mkvmerge v15.0.0 ('Duel with the Devil') 64-bit 2017-09-05 13:14:17 / mkvmerge v15.0.0 ('Duel with the Devil') 64-bit 2017-09-05 13:14:17 / UTC 2017-07-20 05:53:54
FromStats_BitRate : 85
FromStats_Duration : 00:27:06.791000000
FromStats_FrameCount : 473
FromStats_StreamSize : 17379

Текст #4
Идентификатор : 7
Формат : UTF-8
Идентификатор кодека : S_TEXT/UTF8
Идентификатор кодека/Информация : UTF-8 Plain Text
Заголовок : French
Язык : French
Default : Нет
Forced : Нет
Statistics Tags Issue : mkvmerge v15.0.0 ('Duel with the Devil') 64-bit 2017-09-05 13:14:17 / mkvmerge v15.0.0 ('Duel with the Devil') 64-bit 2017-09-05 13:14:17 / UTC 2017-07-20 05:53:54
FromStats_BitRate : 81
FromStats_Duration : 00:27:06.791000000
FromStats_FrameCount : 464
FromStats_StreamSize : 16557

Текст #5
Идентификатор : 8
Формат : UTF-8
Идентификатор кодека : S_TEXT/UTF8
Идентификатор кодека/Информация : UTF-8 Plain Text
Заголовок : German
Язык : German
Default : Нет
Forced : Нет
Statistics Tags Issue : mkvmerge v15.0.0 ('Duel with the Devil') 64-bit 2017-09-05 13:14:17 / mkvmerge v15.0.0 ('Duel with the Devil') 64-bit 2017-09-05 13:14:17 / UTC 2017-07-20 05:53:54
FromStats_BitRate : 83
FromStats_Duration : 00:27:06.791000000
FromStats_FrameCount : 481
FromStats_StreamSize : 16904

Текст #6
Идентификатор : 9
Формат : UTF-8
Идентификатор кодека : S_TEXT/UTF8
Идентификатор кодека/Информация : UTF-8 Plain Text
Заголовок : Italian
Язык : Italian
Default : Нет
Forced : Нет
Statistics Tags Issue : mkvmerge v15.0.0 ('Duel with the Devil') 64-bit 2017-09-05 13:14:17 / mkvmerge v15.0.0 ('Duel with the Devil') 64-bit 2017-09-05 13:14:17 / UTC 2017-07-20 05:53:54
FromStats_BitRate : 82
FromStats_Duration : 00:27:06.791000000
FromStats_FrameCount : 481
FromStats_StreamSize : 16744
pb.wtf



Скачать Раскосяченные через торрент http://s018.radikal.ru/i509/1709/8e/e16bbb8076c2.png Скачать фильм Раскосяченные через торрент бесплантно в хорошем качестве Описание: Рут — сторонница легализации травки, достижению которой она посвятила практически всю свою жизнь, и её мечта в итоге сбывается, ... 10 10 2
Торрент: Зарегистрирован [2019-03-04 05:26] · скачан: 7 раз
Статус: √ проверено
Размер: 15.87 GB
Как cкачать? Как скачать Раскосяченные через торрент | qTorrent

% Раздел Тема Автор DL S | L
Зарубежные сериалы [ 30.86 GB ] Раскосяченные / Disjointed / Сезон: 1 / Серии: 1-20 из 20 [2017 WEBRip 1080p] MVO [TVShows] bober100 Скачать
1 | 0
Зарубежные сериалы [ 6.61 GB ] Раскосяченные / Disjointed / Сезон: 1 / Серии: 1-20 из 20 [2017 WEBRip] MVO [Good People] bober100 Скачать
1 | 0
Зарубежные сериалы [ 16.95 GB ] Раскосяченные / Disjointed / Сезон: 1 / Серии: 1-20 из 20 [2017 WEBRip 720p] MVO [Good People] bober100 Скачать
1 | 0
Зарубежные сериалы [ 3.28 GB ] Раскосяченные / Disjointed / Сезон 1 / Серии 1-10 из 10 [2017 WEBRip] MVO [Jaskier] bober100 Скачать
1 | 0
Зарубежные сериалы [ 13.49 GB ] Раскосяченные / Disjointed / Сезон: 1 / Серии 1-10 из 10 [2017 WEBRip 1080p] [MVO] killermax2013 Скачать
1 | 0
Зарубежные сериалы [ 17.99 GB ] Раскосяченные / Disjointed / Сезон: 1 / Серии 1-20 из 20 [2017 WEBRip 720p] MVO [BaibaKo] GEKADOL Скачать
1 | 0

28-11-2019 20:33  

Отключить всю рекламу на сайте

    Дорогой пользователь! Огромная просьба, поблагодарите релизера, оцените раздачу и оставьте свои комментарий, если Вы скачали Раскосяченные через торрент бесплатно! Внесите свою лепту в развитие PiratBit!
    Комментировать посты могут только пользователи прошедшие не сложную регистрацию
    Показать сообщения:    

    Раскосяченные через торрент
    Скачать бесплатно Раскосяченные
    Раскосяченные скачать торрент
    Раскосяченные смотреть онлайн
    Cкачать фильм Раскосяченные бесплатно
    Раскосяченные скачать торрент в хорошем качестве
    Раскосяченные смотреть онлайн бесплатно в хорошем качестве


    Вы не можете начинать темы
    Вы не можете отвечать на сообщения
    Вы не можете редактировать свои сообщения
    Вы не можете удалять свои сообщения
    Вы не можете голосовать в опросах
    Вы не можете прикреплять файлы к сообщениям
    Вы можете скачивать файлы