Ссылка на приватное зеркало нашего сайта всего за 1$. Внимание количество ограничено!!!

2 сезон

iTunes

1 сезон

1

iTunes

iTunes

iTunes

1 сезон

RePack

30

ИГРА 18+

pack

ВАЖНО

!!Акция!!

Alien_RageХит недели

RePack

MK11
pack

Забери бонус

RePack

jed

!!Акция!!

Alien_Rage

RePack

fifa19

RePack

Assassins Creed: Odyssey

RePack

NEED FOR SPEED™ PAYBACK

4 сезон

9 сезон

Бесстыжие 9 сезон

Все сериалы

все сериалы на PB.wtf

RePack

FAR CRY 5
  

Брубейкер / Brubaker (Стюарт Розенберг) [1980, драма, BDRip 1080p by msltel] DVO pb.wtf

Брубейкер через торрент pb.wtf

Качают: 1 [ 0 KB/s ]
Размер: 19.27 GB | Добавлен: 3 года 1 мес. назад | Торрент скачан:9 раз
Скачать  

13-09-2017 05:07 Брубейкер Скачать торрент  

Название: Брубейкер
Оригинальное название: Brubaker
Год выпуска: 1980
Страна: США
Жанр: драма
Продолжительность: 02:10:35
Перевод: профессиональный двухголосый

Режиссер: Стюарт Розенберг
В ролях: Роберт Редфорд, Яфет Котто, Джейн Александр, Мюррэй Хэмилтон, Дэвид Кит, Морган Фримен, Мэтт Кларк, Тим МакИнтайр, Ричард Уорд, Джон Ван Несс

О фильме: Новый начальник тюрьмы Генри Брубейкер приходит на место службы под видом заключённого. Его цель — взглянуть на всё происходящее в тюрьме изнутри. Увиденное повергает Генри в шок: коррупция, рабство и нелегальный бизнес. Он решает изменить установившиеся порядки, но всегда найдутся те, кому выгоден беспредел. И они готовы бороться до конца... Основой для фильма послужила реальная история Томаса Мёртона, в 1967 году назначенного реформировать пенитенциарную систему штата Арканзас.



Качество: BDRip 1080p
Формат: MKV
Видео: MPEG-4 AVC, 19.2 Mбит/с, 1920x1036, 23.976 кадр/с
Аудио 1: русский, AC3, 448 kbps, 6 ch [профессиональный двухголосый]
Аудио 2: английский, DTS, 1509 kbps, 6 ch, 48 kHz [оригинал]
Субтитры 1: русские
Субтитры 2: английские
Имеются неименованные главы/чаптеры.
Общее
Уникальный идентификатор : 201247242533666328339740764122765673278 (0x9766CF1EB185D6B48DD41121C839433E)
Полное имя : D:\Video\Брубейкер.1980.BDRip.1080p by msltel.mkv
Формат : Matroska
Версия формата : Version 4 / Version 2
Размер файла : 19,3 Гбайт
Продолжительность : 2 ч. 10 м.
Общий поток : 21,1 Мбит/сек
Название фильма : Rip by msltel
Дата кодирования : UTC 2017-09-12 08:47:00
Программа кодирования : mkvmerge v8.2.0 ('World of Adventure') 64bit
Библиотека кодирования : libebml v1.3.1 + libmatroska v1.4.2

Видео
Идентификатор : 1
Формат : AVC
Формат/Информация : Advanced Video Codec
Профиль формата : High@L4.1
Параметр CABAC формата : Да
Параметр RefFrames формата : 4 кадра
Идентификатор кодека : V_MPEG4/ISO/AVC
Продолжительность : 2 ч. 10 м.
Битрейт : 19,2 Мбит/сек
Ширина : 1920 пикселей
Высота : 1036 пикселей
Соотношение сторон : 1,85:1
Режим частоты кадров : Постоянный
Частота кадров : 23,976 (24000/1001) кадра/сек
Цветовое пространство : YUV
Субдискретизация насыщенности : 4:2:0
Битовая глубина : 8 бит
Тип развёртки : Прогрессивная
Бит/(Пиксели*Кадры) : 0.402
Размер потока : 17,5 Гбайт (91%)
Библиотека кодирования : x264 core 146 r2538 121396c
Настройки программы : cabac=1 / ref=4 / deblock=1:-3:-2 / analyse=0x3:0x113 / me=umh / subme=11 / psy=1 / psy_rd=1.00:0.15 / mixed_ref=1 / me_range=32 / chroma_me=1 / trellis=2 / 8x8dct=1 / cqm=0 / deadzone=21,11 / fast_pskip=0 / chroma_qp_offset=-3 / threads=6 / lookahead_threads=1 / sliced_threads=0 / nr=0 / decimate=1 / interlaced=0 / bluray_compat=0 / constrained_intra=0 / bframes=13 / b_pyramid=2 / b_adapt=2 / b_bias=0 / direct=1 / weightb=1 / open_gop=0 / weightp=2 / keyint=230 / keyint_min=23 / scenecut=40 / intra_refresh=0 / rc_lookahead=40 / rc=crf / mbtree=0 / crf=21.8 / qcomp=0.60 / qpmin=0 / qpmax=69 / qpstep=4 / vbv_maxrate=62500 / vbv_bufsize=78125 / crf_max=0.0 / nal_hrd=none / filler=0 / ip_ratio=1.40 / pb_ratio=1.30 / aq=1:1.00
Язык : English
Default : Да
Forced : Нет

Аудио #1
Идентификатор : 2
Формат : AC-3
Формат/Информация : Audio Coding 3
Параметр Endianness формата : Big
Идентификатор кодека : A_AC3
Продолжительность : 2 ч. 10 м.
Вид битрейта : Постоянный
Битрейт : 448 Кбит/сек
Каналы : 6 каналов
Расположение каналов : Front: L C R, Side: L R, LFE
Частота : 48,0 КГц
Частота кадров : 31,250 кадров/сек (1536 SPF)
Битовая глубина : 16 бит
Метод сжатия : С потерями
Размер потока : 418 Мбайт (2%)
Заголовок : DVO
Язык : Russian
ServiceKind/String : Complete Main
Default : Да
Forced : Нет

Аудио #2
Идентификатор : 3
Формат : DTS
Формат/Информация : Digital Theater Systems
Режим : 16
Параметр Endianness формата : Big
Идентификатор кодека : A_DTS
Продолжительность : 2 ч. 10 м.
Вид битрейта : Постоянный
Битрейт : 1509 Кбит/сек
Каналы : 6 каналов
Расположение каналов : Front: L C R, Side: L R, LFE
Частота : 48,0 КГц
Частота кадров : 93,750 кадра/сек (512 SPF)
Битовая глубина : 24 бит
Метод сжатия : С потерями
Размер потока : 1,38 Гбайт (7%)
Заголовок : original
Язык : English
Default : Нет
Forced : Нет

Текст #1
Идентификатор : 4
Формат : UTF-8
Идентификатор кодека : S_TEXT/UTF8
Идентификатор кодека/Информация : UTF-8 Plain Text
Продолжительность : 2 ч. 3 м.
Битрейт : 82 бит/сек
ElementCount : 1388
Размер потока : 74,2 Кбайт (0%)
Заголовок : русские
Язык : Russian
Default : Нет
Forced : Нет

Текст #2
Идентификатор : 5
Формат : UTF-8
Идентификатор кодека : S_TEXT/UTF8
Идентификатор кодека/Информация : UTF-8 Plain Text
Продолжительность : 2 ч. 3 м.
Битрейт : 47 бит/сек
ElementCount : 1721
Размер потока : 43,3 Кбайт (0%)
Заголовок : английские
Язык : English
Default : Нет
Forced : Нет

Меню
00:00:00.000 : :Chapter 01
00:09:39.453 : :Chapter 02
00:19:00.472 : :Chapter 03
00:24:59.039 : :Chapter 04
00:31:07.156 : :Chapter 05
00:37:13.940 : :Chapter 06
00:40:58.789 : :Chapter 07
00:48:23.567 : :Chapter 08
00:53:21.531 : :Chapter 09
01:02:41.048 : :Chapter 10
01:12:30.804 : :Chapter 11
01:18:47.848 : :Chapter 12
01:20:34.537 : :Chapter 13
01:27:25.031 : :Chapter 14
01:36:51.222 : :Chapter 15
01:42:10.122 : :Chapter 16
01:52:43.923 : :Chapter 17
01:58:03.242 : :Chapter 18
02:02:07.737 : :Chapter 19
02:07:53.832 : :Chapter 20
02:10:35.035 : :Chapter 21
pb.wtf



Скачать Брубейкер через торрент http://s02.radikal.ru/i175/1709/40/4ecfb0293daa.jpg Скачать фильм Брубейкер через торрент бесплантно в хорошем качестве О фильме: Новый начальник тюрьмы Генри Брубейкер приходит на место службы под видом заключённого. Его цель — взглянуть на всё происходящее ... 10 10 2
Info! Золотая раздача, скачанное не засчитывается.
Торрент: Зарегистрирован [2017-09-13 05:07] · скачан: 9 раз
Статус: √ проверено
Размер: 19.27 GB
Как cкачать? Как скачать Брубейкер через торрент | qTorrent

% Раздел Тема Автор DL S | L
Фильмы [HD 720p, 1080p] (Хороший звук DUB, MVO) [ 6.71 GB ] Брубейкер / Brubaker [1980 BDRip 720p by msltel] DVO msltel Скачать
1 | 0

28-11-2019 20:33  

Отключить всю рекламу на сайте

    Дорогой пользователь! Огромная просьба, поблагодарите релизера, оцените раздачу и оставьте свои комментарий, если Вы скачали Брубейкер через торрент бесплатно! Внесите свою лепту в развитие PiratBit!
    Комментировать посты могут только пользователи прошедшие не сложную регистрацию
    Показать сообщения:    

    Брубейкер через торрент
    Скачать бесплатно Брубейкер
    Брубейкер скачать торрент
    Брубейкер смотреть онлайн
    Cкачать фильм Брубейкер бесплатно
    Брубейкер скачать торрент в хорошем качестве
    Брубейкер смотреть онлайн бесплатно в хорошем качестве


    Вы не можете начинать темы
    Вы не можете отвечать на сообщения
    Вы не можете редактировать свои сообщения
    Вы не можете удалять свои сообщения
    Вы не можете голосовать в опросах
    Вы не можете прикреплять файлы к сообщениям
    Вы можете скачивать файлы