Ссылка на приватное зеркало нашего сайта всего за 1$. Внимание количество ограничено!!!

2 сезон

iTunes

1 сезон

1

iTunes

iTunes

iTunes

1 сезон

RePack

30

ИГРА 18+

pack

ВАЖНО

!!Акция!!

Alien_RageХит недели

RePack

MK11
pack

Забери бонус

RePack

jed

!!Акция!!

Alien_Rage

RePack

fifa19

RePack

Assassins Creed: Odyssey

RePack

NEED FOR SPEED™ PAYBACK

4 сезон

9 сезон

Бесстыжие 9 сезон

Все сериалы

все сериалы на PB.wtf

RePack

FAR CRY 5
  

Ментовские войны. Одесса / Серии: 1-24 из 24 (Валерий Ибрагимов) [2017, Украина, драма, криминал, SATRip-AVC от keeper.52] pb.wtf

Ментовские войны. Одесса через торрент pb.wtf

Раздают: 1 [ 0 KB/s ]
Размер: 15.82 GB | Добавлен: 3 года 1 мес. назад | Торрент скачан:66 раз
Скачать  

13-09-2017 08:05 Ментовские войны. Одесса Скачать торрент  

Ментовские войны. Одесса Год выпуска: 2017
Страна: Украина
Киностудия: Киевтелефильм
Жанр: драма, криминал
Продолжительность: ~ 00:45:00 / серия
Субтитры: нет
Режиссер: Валерий Ибрагимов
В ролях: Прохор Дубравин, Михаил Шамигулов, Игорь Петрусенко, Сергей Кучера, Анна Сагайдачная, Пётр Сова, Тарас Цимбалюк, Тарас Мельничук, Вадим Акимкин, Анастасия Гиренкова, Татьяна Юрикова, Кристина Мельниченко

Описание: Какое осиное гнездо разворотил своими расследованиями лучший оперативник Одессы Максим Бельский, он и сам не понял. Но в итоге его репутация среди коллег подорвана, он утратил их доверие и поддержку, а его безупречное имя испачкано грязью. Кто стоит за этим, кому он помешал? Криминальный авторитет по кличке Гоблин или кто-то еще более страшный и серьезный?


Качество: SATRip-AVC / DVB
Формат: MKV

Видео: 720x572@1024x572 (16:9), 25.000 fps, MPEG-4 AVC ~ 1808 kbps avg, 0.176 bit/pixel
Аудио: 48 kHz, Dolby AC3 2.0 192 kbps

Релиз от:
Внимание! Раздача ведётся путём добавления новых серий; при каждом добавлении создаётся новый торрент-файл. Чтобы начать докачку новой серии, пользователям необходимо сделать следующее:
(1) остановить скачивание;
(2) удалить старый торрент-файл у себя из клиента (старые серии удалять не надо);
(3) скачать новый торрент-файл и запустить его у себя в клиенте вместо старого, при этом указать клиенту путь в старую папку куда и должно происходить скачивание новых серий.
Ваш клиент при этом должен произвести хеширование (проверку) старой папки (если он не производит проверку сам – помогите ему сделать это), и будет докачивать только те серии которых у вас ещё нет. Старые серии при этом не удаляются, а продолжают раздаваться!
Если вы уже удалили старые серии, то предотвратить повторную закачку старых серий можно, отжав галочку в соответствующих местах при запуске нового торрент-файла. Желательно старые серии не удалять как можно дольше, чтобы релизёр не столько продолжал раздавать старые серии, а смог сконцентрироваться на новых.
General
Format : Matroska
Format version : Version 2
File size : 698 MiB
Duration : 48 min 43 s
Overall bit rate : 2 002 kb/s
Encoded date : UTC 2017-09-12 09:53:06
Writing application : mkvmerge v6.1.0 ('Old Devil') built on Mar 4 2013 09:10:42
Writing library : libebml v1.3.0 + libmatroska v1.4.0

Video
ID : 1
Format : AVC
Format/Info : Advanced Video Codec
Format profile : High@L4.1
Format settings, CABAC : Yes
Format settings, RefFrames : 10 frames
Codec ID : V_MPEG4/ISO/AVC
Duration : 48 min 43 s
Bit rate : 1 808 kb/s
Width : 720 pixels
Height : 572 pixels
Display aspect ratio : 16:9
Frame rate mode : Constant
Frame rate : 25.000 FPS
Color space : YUV
Chroma subsampling : 4:2:0
Bit depth : 8 bits
Scan type : Progressive
Bits/(Pixel*Frame) : 0.176
Stream size : 617 MiB (88%)
Writing library : x264 core 130 r2273 b3065e6
Encoding settings : cabac=1 / ref=10 / deblock=1:-2:-1 / analyse=0x3:0x113 / me=umh / subme=10 / psy=1 / psy_rd=1.00:0.00 / mixed_ref=1 / me_range=32 / chroma_me=1 / trellis=2 / 8x8dct=1 / cqm=0 / deadzone=21,11 / fast_pskip=1 / chroma_qp_offset=-2 / threads=12 / lookahead_threads=2 / sliced_threads=0 / nr=0 / decimate=0 / interlaced=0 / bluray_compat=0 / constrained_intra=0 / bframes=8 / b_pyramid=2 / b_adapt=2 / b_bias=0 / direct=3 / weightb=1 / open_gop=0 / weightp=2 / keyint=250 / keyint_min=25 / scenecut=40 / intra_refresh=0 / rc=2pass / mbtree=0 / bitrate=1808 / ratetol=1.0 / qcomp=0.60 / qpmin=0 / qpmax=69 / qpstep=4 / cplxblur=20.0 / qblur=0.5 / ip_ratio=1.40 / pb_ratio=1.30 / aq=1:1.00
Default : Yes
Forced : No

Audio
ID : 2
Format : AC-3
Format/Info : Audio Coding 3
Format settings, Endianness : Big
Codec ID : A_AC3
Duration : 48 min 43 s
Bit rate mode : Constant
Bit rate : 192 kb/s
Channel(s) : 2 channels
Channel positions : Front: L R
Sampling rate : 48.0 kHz
Frame rate : 31.250 FPS (1536 SPF)
Bit depth : 16 bits
Compression mode : Lossy
Stream size : 66.9 MiB (10%)
Service kind : Complete Main
Default : Yes
Forced : No
Торрент обновлен 26 сентября 2017 года, добавлена 24-я серияpb.wtf



Скачать Ментовские войны. Одесса через торрент http://s002.radikal.ru/i198/1709/df/084d07869b15.png Скачать фильм Ментовские войны. Одесса через торрент бесплантно в хорошем качестве Описание: Какое осиное гнездо разворотил своими расследованиями лучший оперативник Одессы Максим Бельский, он и сам не понял. Но в итоге ... 8.9 10 8
Info! Золотая раздача, скачанное не засчитывается.
Торрент: Зарегистрирован [2017-09-25 21:49] · скачан: 66 раз
Статус: √ проверено
Размер: 15.82 GB
Как cкачать? Как скачать Ментовские войны. Одесса через торрент | qTorrent

% Раздел Тема Автор DL S | L
Наши сериалы [ 36.49 GB ] Ментовские войны. Одесса [2017 DVB] Русский Бумер Скачать
1 | 0
Наши сериалы [ 13.35 GB ] Ментовские войны. Одесса / Серии: 1-24 из 24 [2017 SATRip-AVC] aleksan55 Скачать
1 | 0
Наши сериалы [ 14.09 GB ] Ментовские войны. Одесса / Серии 1-24 из 24 [2017 SATRip] bober100 Скачать
1 | 0


Последний раз редактировалось: keeper.52 (2017-09-25 21:49), всего редактировалось 2 раз(а)

28-11-2019 20:33  

Отключить всю рекламу на сайте

24-09-2017 15:00 Ментовские войны. Одесса Скачать торрент  

Здравствуйте.
Когда ждать 24 серию?
Спасибо.pb.wtf



    Дорогой пользователь! Огромная просьба, поблагодарите релизера, оцените раздачу и оставьте свои комментарий, если Вы скачали Ментовские войны. Одесса через торрент бесплатно! Внесите свою лепту в развитие PiratBit!
    Комментировать посты могут только пользователи прошедшие не сложную регистрацию
    Показать сообщения:    

    Ментовские войны. Одесса через торрент
    Скачать бесплатно Ментовские войны. Одесса
    Ментовские войны. Одесса скачать торрент
    Ментовские войны. Одесса смотреть онлайн
    Cкачать фильм Ментовские войны. Одесса бесплатно
    Ментовские войны. Одесса скачать торрент в хорошем качестве
    Ментовские войны. Одесса смотреть онлайн бесплатно в хорошем качестве


    Вы не можете начинать темы
    Вы не можете отвечать на сообщения
    Вы не можете редактировать свои сообщения
    Вы не можете удалять свои сообщения
    Вы не можете голосовать в опросах
    Вы не можете прикреплять файлы к сообщениям
    Вы можете скачивать файлы