новый адрес пиратбит piratbit
Мега распродажа FORZA HORIZON 4 ULTIMATE+ВСЕ DLC+ОНЛАЙН всего за 499р. 349 руб. (супер цена). Внимание количество ограничено!!!

iTunes

1+1

iTunes

мы

iTunes

1

iTunes

Чернобыль

iTunes

Ральф против интернета

Лицензия

ПШазам

Лицензия

Игра престолов

Лицензия

30
pack

ВАЖНО

!!Акция!!

Alien_RageХит недели

RePack

Resident Evil 21

ИГРА 18+

pack

RePack

Metro:Exodus

!!Акция!!

Alien_Rage

RePack

fifa19

RePack

Assassins Creed: Odyssey

RePack

NEED FOR SPEED™ PAYBACK

3 сезон

9 сезон

Бесстыжие 9 сезон

Все сериалы

все сериалы на PB.wtf

RePack

FAR CRY 5
Ребята, катастрофически не хватает 1900р. для оплаты серверов за Октябрь (всвязи с блокировками трафик упал в 3 раза), 1-2р., выручайте.
  

Атаман кодр (Михаил Калик, Борис Рыцарев, Ольга Улицкая) [1958, СССР, драма, VHSRip от AVP Studio] pb.wtf

Атаман кодр через торрент pb.wtf

Размер: 746 MB | Добавлен: 2 года 2 мес. назад | Торрент скачан:17 раз
Скачать  

13-09-2017 08:54 Атаман кодр Скачать торрент  

Атаман кодр
Страна: СССР
Производство: Молдова-фильм

Жанр: драма
Год выпуска: 1958
Продолжительность: 01:12:58

Перевод: Не требуется
Cубтитры: нет
Оригинальная аудиодорожка: русский

Режиссер: Михаил Калик, Борис Рыцарев, Ольга Улицкая

В ролях:
Лев Поляков, Инна Кмит, Александр Ширвиндт, Микаэла Дроздовская, Януш Казибеев, А. Миронов, Артур Нищёнкин, Андрей Нагиц, Константин Крамарчук, Евгения Ларионова, Анатолий Ларионов, Константин Константинов, Сергей Некрасов, Пётр Репнин...
Об актёрах подробней

Описание:
1830-е, Молдавия. Конюх Тодор полюбил горничную своего барина — Юстинию. Попав на каторжные работы, Тодор организовал побег и с группой единомышленников укрылся в кодрах. Так под руководством атамана Тодора Тобултока молдавские повстанцы, назвавшие себя гайдуками, начали борьбу против помещичьего произвола.

Источник: VHS
Качество видео: VHSRip
Формат видео: AVI

Видео: 704x528 (4:3), 25 fps, XviD ~ 1291 kbps avg, 0.139 bit/pixel
Аудио: 48 kHz, MP3 2.0, 128 kbps

Раздача от:
Общее
Полное имя : Ataman.kodr.1958.VHSRip_[New-team]_by_AVP_Studio.avi
Формат : AVI
Формат/Информация : Audio Video Interleave
Размер файла : 746 Мбайт
Продолжительность : 1 ч. 12 м.
Общий поток : 1429 Кбит/сек
Программа кодирования : VirtualDubMod 1.5.10.3 | www.virtualdub-fr.org || (build 2550/release)
Библиотека кодирования : VirtualDubMod build 2550/release

Видео
Идентификатор : 0
Формат : MPEG-4 Visual
Профиль формата : Advanced Simple@L5
Параметр BVOP формата : 1
Параметр QPel формата : Нет
Параметр GMC формата : Без точки перехода
Параметр матрицы формата : Выборочная
Идентификатор кодека : XVID
Идентификатор кодека/Подсказка : XviD
Продолжительность : 1 ч. 12 м.
Битрейт : 1291 Кбит/сек
Ширина : 704 пикселя
Высота : 528 пикселей
Соотношение сторон : 4:3
Частота кадров : 25,000 кадров/сек
Цветовое пространство : YUV
Субдискретизация насыщенности : 4:2:0
Битовая глубина : 8 бит
Тип развёртки : Прогрессивная
Метод сжатия : С потерями
Бит/(Пиксели*Кадры) : 0.139
Размер потока : 674 Мбайт (90%)
Библиотека кодирования : XviD 73

Аудио
Идентификатор : 1
Формат : MPEG Audio
Версия формата : Version 1
Профиль формата : Layer 3
Идентификатор кодека : 55
Идентификатор кодека/Подсказка : MP3
Продолжительность : 1 ч. 12 м.
Вид битрейта : Постоянный
Битрейт : 128 Кбит/сек
Каналы : 2 канала
Частота : 48,0 КГц
Метод сжатия : С потерями
Размер потока : 66,8 Мбайт (9%)
Выравнивание : Соединение по промежуткам
Продолжительность промежутка : 40 мс. (1,00 видеокадр)
Время предзагрузки промежутка : 504 мс.
Библиотека кодирования : LAME3.99r
Настройки программы : -m s -V 4 -q 2 -lowpass 17 -b 128
pb.wtf



Скачать Атаман кодр через торрент http://s019.radikal.ru/i636/1709/fe/62dd8bc92de0.png Скачать фильм Атаман кодр через торрент бесплантно в хорошем качестве Описание:1830-е, Молдавия. Конюх Тодор полюбил горничную своего барина — Юстинию. Попав на каторжные работы, Тодор организовал побег и с ... 10 10 1
Info! Золотая раздача, скачанное не засчитывается.
Торрент: Зарегистрирован [2017-09-13 08:54] · скачан: 17 раз
Статус: √ проверено
Размер: 746 MB
Как cкачать? Как скачать Атаман кодр через торрент | qTorrent

% Раздел Тема Автор DL S | L
Кино СССР [ 744 MB ] Атаман кодр [1958 СССР VHSRip-AVC от AVP Studio] AVP Studio Скачать
1 | 0


>> Регистрируемся здесь <<






Отзывы и комментарии о схеме читаем и пишем здесь: ---> Отзывы и комментарии о схеме

Новые благодарочки в телеграм довольных пользователей:
скриншот   скриншот   скриншот   скриншот   скриншот
    Дорогой пользователь! Огромная просьба, поблагодарите релизера, оцените раздачу и оставьте свои комментарий, если Вы скачали Атаман кодр через торрент бесплатно! Внесите свою лепту в развитие PiratBit!
    Комментировать посты могут только пользователи прошедшие не сложную регистрацию
    Показать сообщения:    

    Атаман кодр через торрент
    Скачать бесплатно Атаман кодр
    Атаман кодр скачать торрент
    Атаман кодр смотреть онлайн
    Cкачать фильм Атаман кодр бесплатно
    Атаман кодр скачать торрент в хорошем качестве
    Атаман кодр смотреть онлайн бесплатно в хорошем качестве


    Вы не можете начинать темы
    Вы не можете отвечать на сообщения
    Вы не можете редактировать свои сообщения
    Вы не можете удалять свои сообщения
    Вы не можете голосовать в опросах
    Вы не можете прикреплять файлы к сообщениям
    Вы можете скачивать файлы