Ссылка на приватное зеркало нашего сайта всего за 1$. Внимание количество ограничено!!!

2 сезон

iTunes

1 сезон

1

2 сезон

2 сезон

iTunes

1 сезон

RePack

30

Новинка

ВАЖНО

ИГРА 18+

pack

RePack

MK11
pack

Забери бонус

RePack

jed

!!Акция!!

Alien_Rage

RePack

fifa19

RePack

Assassins Creed: Odyssey

RePack

NEED FOR SPEED™ PAYBACK

4 сезон

9 сезон

Бесстыжие 9 сезон

Все сериалы

все сериалы на PB.wtf

RePack

FAR CRY 5
  

Эмоциональная Жизнь: Как Снимали Манчестер у моря / Emotional Lives - Making Manchester by the Sea [2014, Документальный, BDRip 720p от _denis_100 / NNNB] VO (PiratVoice) + Original + Sub (Rus) pb.wtf

Эмоциональная Жизнь: Как Снимали Манчестер у моря через торрент pb.wtf

Размер: 684 MB | Добавлен: 3 года 2 мес. назад | Торрент скачан:13 раз
Скачать  

13-09-2017 15:30 Эмоциональная Жизнь: Как Снимали Манчестер у моря Скачать торрент  

Эмоциональная Жизнь: Как Снимали Манчестер у моря / Emotional Lives - Making Manchester by the Sea



Русское название: Эмоциональная Жизнь: Как Снимали Манчестер у моря
Оригинальное название: Emotional Lives - Making Manchester by the Sea
Год выпуска: 2016
Страна: США
Жанр: Документальный
Продолжительность: 00:16:01
Перевод: Любительский одноголосый
Субтитры: русские
Описание:
Документальный фильм о том, как снимали Манчестер у моря с комментариями актеров, режиссера, продюсера и др.
Качество: BDRip 720p
Формат: AVC (библиотека кодирования x.264)
Контейнер (Расширение): MKV
Видео: 1280x720, 5585 Кбит/сек, 23,976 кадр/сек, 0,253 Бит/[Пиксели*Кадры]
Аудио №1: русский / AC3 / 2.0 / 48 kHz / 192 kbps / |Любительский одноголосый, Cleric "PiratVoice"|
Аудио №2: английский / AC3 / 2.0 / 48 kHz / 192 kbps /Автор рипа: Группа:
***Озвучивал Cleric
***Работа со звуком _denis_100
Format : Matroska
Format version : Version 2
File size : 684 MiB
Duration : 16mn 1s
Overall bit rate : 5 971 Kbps
Movie name : Manchester By The Sea.Emotional Lives.(2016).BDRip.720p.[denis100]
Encoded date : UTC 2017-09-12 17:22:56
Writing application : mkvmerge v5.8.0 ('No Sleep / Pillow') built on Sep 2 2012 15:37:04
Writing library : libebml v1.2.3 + libmatroska v1.3.0

Video
ID : 1
Format : AVC
Format/Info : Advanced Video Codec
Format profile : High@L4.1
Format settings, CABAC : Yes
Format settings, ReFrames : 9 frames
Codec ID : V_MPEG4/ISO/AVC
Duration : 16mn 1s
Bit rate : 5 585 Kbps
Width : 1 280 pixels
Height : 720 pixels
Display aspect ratio : 16:9
Frame rate mode : Constant
Frame rate : 23.976 (24000/1001) fps
Color space : YUV
Chroma subsampling : 4:2:0
Bit depth : 8 bits
Scan type : Progressive
Bits/(Pixel*Frame) : 0.253
Stream size : 626 MiB (92%)
Title : Manchester By The Sea.Emotional Lives.(2016).BDRip.720p.[denis100]
Writing library : x264 core 148 r2744 b97ae06
Encoding settings : cabac=1 / ref=9 / deblock=1:-3:-3 / analyse=0x3:0x133 / me=umh / subme=11 / psy=1 / psy_rd=1.00:0.10 / mixed_ref=1 / me_range=32 / chroma_me=1 / trellis=2 / 8x8dct=1 / cqm=0 / deadzone=21,11 / fast_pskip=0 / chroma_qp_offset=-3 / threads=6 / lookahead_threads=1 / sliced_threads=0 / nr=0 / decimate=1 / interlaced=0 / bluray_compat=0 / constrained_intra=0 / bframes=12 / b_pyramid=2 / b_adapt=2 / b_bias=0 / direct=3 / weightb=1 / open_gop=0 / weightp=2 / keyint=240 / keyint_min=23 / scenecut=40 / intra_refresh=0 / rc=2pass / mbtree=0 / bitrate=5585 / ratetol=1.0 / qcomp=0.60 / qpmin=0 / qpmax=69 / qpstep=4 / cplxblur=20.0 / qblur=0.5 / ip_ratio=1.40 / pb_ratio=1.30 / aq=1:0.75
Language : English
Default : Yes
Forced : No

Audio #1
ID : 2
Format : AC-3
Format/Info : Audio Coding 3
Mode extension : CM (complete main)
Format settings, Endianness : Big
Codec ID : A_AC3
Duration : 16mn 1s
Bit rate mode : Constant
Bit rate : 192 Kbps
Channel(s) : 2 channels
Channel positions : Front: L R
Sampling rate : 48.0 KHz
Frame rate : 31.250 fps (1536 spf)
Compression mode : Lossy
Stream size : 22.0 MiB (3%)
Title : VO, Cleric "PiratVoice"
Language : Russian
Default : Yes
Forced : No

Audio #2
ID : 3
Format : AC-3
Format/Info : Audio Coding 3
Format profile : Dolby Digital
Mode extension : CM (complete main)
Format settings, Endianness : Big
Codec ID : A_AC3
Duration : 16mn 1s
Bit rate mode : Constant
Bit rate : 192 Kbps
Channel(s) : 2 channels
Channel positions : Front: L R
Sampling rate : 48.0 KHz
Frame rate : 31.250 fps (1536 spf)
Compression mode : Lossy
Stream size : 22.0 MiB (3%)
Language : English
Default : No
Forced : No

Text
ID : 4
Format : UTF-8
Codec ID : S_TEXT/UTF8
Codec ID/Info : UTF-8 Plain Text
Language : Russian
Default : No
Forced : No
скриншот   скриншот   скриншот   скриншот  
pb.wtf



Скачать Эмоциональная Жизнь: Как Снимали Манчестер у моря через торрент http://img11.lostpic.net/2017/04/29/2673fcd04c95262c674aa4fb21de6bc4.png Скачать фильм Эмоциональная Жизнь: Как Снимали Манчестер у моря через торрент бесплантно в хорошем качестве Описание:Документальный фильм о том, как снимали Манчестер у моря с комментариями актеров, режиссера, продюсера и ... 10 10 2
Info! Золотая раздача, скачанное не засчитывается.
Торрент: Зарегистрирован [2017-09-13 15:30] · скачан: 13 раз
Статус: √ проверено
Размер: 684 MB
Как cкачать? Как скачать Эмоциональная Жизнь: Как Снимали Манчестер у моря через торрент | qTorrent

28-11-2019 20:33  

Отключить всю рекламу на сайте

    Дорогой пользователь! Огромная просьба, поблагодарите релизера, оцените раздачу и оставьте свои комментарий, если Вы скачали Эмоциональная Жизнь: Как Снимали Манчестер у моря через торрент бесплатно! Внесите свою лепту в развитие PiratBit!
    Комментировать посты могут только пользователи прошедшие не сложную регистрацию
    Показать сообщения:    

    Эмоциональная Жизнь: Как Снимали Манчестер у моря через торрент
    Скачать бесплатно Эмоциональная Жизнь: Как Снимали Манчестер у моря
    Эмоциональная Жизнь: Как Снимали Манчестер у моря скачать торрент
    Эмоциональная Жизнь: Как Снимали Манчестер у моря смотреть онлайн
    Cкачать фильм Эмоциональная Жизнь: Как Снимали Манчестер у моря бесплатно
    Эмоциональная Жизнь: Как Снимали Манчестер у моря скачать торрент в хорошем качестве
    Эмоциональная Жизнь: Как Снимали Манчестер у моря смотреть онлайн бесплатно в хорошем качестве


    Вы не можете начинать темы
    Вы не можете отвечать на сообщения
    Вы не можете редактировать свои сообщения
    Вы не можете удалять свои сообщения
    Вы не можете голосовать в опросах
    Вы не можете прикреплять файлы к сообщениям
    Вы можете скачивать файлы