2 сезон

iTunes

MVO

1

2 сезон

iTunes

iTunes

1 сезон

RePack

30

Новинка

ВАЖНО

ИГРА 18+

pack

RePack

MK11
pack

Легкие деньги

RePack

jed

RePack

fifa19

RePack

RDR2

RePack

NEED FOR SPEED™ PAYBACK

4 сезон

9 сезон

Бесстыжие 9 сезон

Все сериалы

все сериалы на PB.wtf

RePack

FAR CRY 5

Anonymous, доброе утро, мы не успеваем собрать деньги на оплату серверов за декабрь и январь, помогите нам пожалуйста в это трудное время. В качестве благодарности мы отключим Вам всю рекламу на сайте (укажите свой ник в строку Ваше имя)!

×
  
Magnet ссылка

Секретный агент / Unlocked (Майкл Эптед) [2017, Боевик, триллер, BDRip-AVC] DUB [Лицензия] - ExKinoRay pb.wtf

Секретный агент через торрент pb.wtf

Размер: 1.44 GB | Добавлен: 3 года 4 мес. назад | Торрент скачан:230 раз
Скачать  

14-09-2017 04:04 Секретный агент Скачать торрент  

Информация о фильме
Название: Секретный агент
Оригинальное название: Unlocked
Год выпуска: 2017
Жанр: Боевик, триллер
Страна: Великобритания
Студия: Bloom, Czech Anglo Productions, Di Bonaventura Pictures, Lip Sync Productions
Продолжительность: 01:38:22
Перевод: Дублированный | Лицензия
Субтитры: Русские (форсированные, полные)
Режиссер: Майкл Эптед
В ролях: Нуми Рапас, Орландо Блум, Тони Коллетт, Майкл Дуглас, Джон Малкович, Акшай Кумар, Тосин Коул, Эделайо Эдедайо, Брайан Каспе, Аймен Хамдуши

Описание: Она - секретный агент мирового уровня. На этот раз ее задача - предотвратить биологическую атаку на Лондон. Вовлеченная в большую шпионскую игру, она неизбежно сталкивается с миром двойных стандартов, паранойи, безнаказанности и предательства. Вокруг так много друзей, но кому из них на самом деле можно доверять? И кто из них тот неуловимый «крот», которого она должна вычислить, чтобы остановить террористов? Чтобы спасти Лондон, ей самой придется играть не по правилам...


rating

Файл
Формат: MKV
Качество: BDRip-AVC
Видео: MPEG-4 AVC, 720x300 (2.40:1), 1663 Kbit/s, 24.000 fps, 0,321 bpp
Звук:
Аудио: 48 kHz, AC3, 5.1, 448 Kbps | RUS

Навигация по главам: есть
General
Unique ID : 240356203806865073483711423276604768293 (0xB4D2EBC82B4B038992114E6CE544C025)
Complete name : D:\Unlocked.2017.BDRip.AVC.ExKinoRay.mkv
Format : Matroska
Format version : Version 2
File size : 1.44 GiB
Duration : 1 h 38 min
Overall bit rate : 2 091 kb/s
Movie name : Unlocked 2017 from ExKinoRay
Encoded date : UTC 2017-09-14 02:03:06
Writing application : mkvmerge v5.6.0 ('Kenya Kane') built on May 27 2012 16:44:04
Writing library : libebml v1.2.3 + libmatroska v1.3.0

Video
ID : 1
Format : AVC
Format/Info : Advanced Video Codec
Format profile : High@L4.1
Format settings, CABAC : Yes
Format settings, ReFrames : 10 frames
Codec ID : V_MPEG4/ISO/AVC
Duration : 1 h 38 min
Bit rate : 1 663 kb/s
Width : 720 pixels
Height : 300 pixels
Display aspect ratio : 2.40:1
Frame rate mode : Constant
Frame rate : 24.000 FPS
Color space : YUV
Chroma subsampling : 4:2:0
Bit depth : 8 bits
Scan type : Progressive
Bits/(Pixel*Frame) : 0.321
Stream size : 1.10 GiB (77%)
Title : Enigma
Writing library : x264 core 144 r2525 40bb568
Encoding settings : cabac=1 / ref=10 / deblock=1:-3:-3 / analyse=0x3:0x113 / me=umh / subme=11 / psy=1 / psy_rd=1.00:0.05 / mixed_ref=1 / me_range=32 / chroma_me=1 / trellis=2 / 8x8dct=1 / cqm=0 / deadzone=21,11 / fast_pskip=1 / chroma_qp_offset=-3 / threads=12 / lookahead_threads=2 / sliced_threads=0 / nr=0 / decimate=0 / interlaced=0 / bluray_compat=0 / constrained_intra=0 / bframes=10 / b_pyramid=2 / b_adapt=2 / b_bias=0 / direct=3 / weightb=1 / open_gop=0 / weightp=2 / keyint=240 / keyint_min=24 / scenecut=40 / intra_refresh=0 / rc_lookahead=40 / rc=2pass / mbtree=0 / bitrate=1663 / ratetol=1.0 / qcomp=0.60 / qpmin=0 / qpmax=51 / qpstep=4 / cplxblur=20.0 / qblur=0.5 / vbv_maxrate=50000 / vbv_bufsize=62500 / nal_hrd=none / filler=0 / ip_ratio=1.40 / pb_ratio=1.30 / aq=3:0.80
Default : Yes
Forced : No

Audio
ID : 2
Format : AC-3
Format/Info : Audio Coding 3
Mode extension : CM (complete main)
Format settings, Endianness : Big
Codec ID : A_AC3
Duration : 1 h 38 min
Bit rate mode : Constant
Bit rate : 448 kb/s
Channel(s) : 6 channels
Channel positions : Front: L C R, Side: L R, LFE
Sampling rate : 48.0 kHz
Frame rate : 31.250 FPS (1536 spf)
Compression mode : Lossy
Stream size : 315 MiB (21%)
Title : Dub (BD Rus)
Language : Russian
Default : Yes
Forced : No

Text #1
ID : 3
Format : UTF-8
Codec ID : S_TEXT/UTF8
Codec ID/Info : UTF-8 Plain Text
Title : Forced
Language : Russian
Default : Yes
Forced : No

Text #2
ID : 4
Format : UTF-8
Codec ID : S_TEXT/UTF8
Codec ID/Info : UTF-8 Plain Text
Title : Full
Language : Russian
Default : No
Forced : No

Menu
00:00:00.000 : en:Chapter 01
00:07:36.583 : en:Chapter 02
00:16:22.125 : en:Chapter 03
00:23:34.416 : en:Chapter 04
00:31:06.208 : en:Chapter 05
00:38:49.125 : en:Chapter 06
00:47:01.083 : en:Chapter 07
00:53:55.333 : en:Chapter 08
01:03:15.083 : en:Chapter 09
01:09:50.083 : en:Chapter 10
01:17:26.666 : en:Chapter 11
01:24:01.500 : en:Chapter 12
Релиз от:

Автор релиза: pb.wtf



Скачать Секретный агент через торрент http://i92.fastpic.ru/big/2017/0704/dd/3cbe3f2de24522ec342d3b5fa681bddd.jpg Скачать фильм Секретный агент через торрент бесплантно в хорошем качестве Описание: Она - секретный агент мирового уровня. На этот раз ее задача - предотвратить биологическую атаку на Лондон. Вовлеченная в большую ... 10 10 8
Info! Золотая раздача, скачанное не засчитывается.
Торрент: Зарегистрирован [2017-09-14 04:04] · скачан: 230 раз
Статус: √ проверено
Размер: 1.44 GB
Как cкачать? Как скачать Секретный агент через торрент | UTorrent

% Раздел Тема Автор DL S | L
Фильмы [HD 720p, 1080p] (Хороший звук DUB, MVO) [ 11.27 GB ] Секретный агент / Unlocked [2017 BDRip 1080p] DUB [] - ExKinoRay Enigma2010 Скачать
2 | 0

28-11-2019 20:33  

Отключить всю рекламу на сайте

14-09-2017 06:08 Секретный агент Скачать торрент  

Смотрел этот фильм дней 10 назад. Сегодня увидел его в шапке.Двойные ощущения. С одной стороны помню что смотрел и даже вроде понравился , а с другой стороны - я никак не мог вспомнить о нём ничего кроме того что Нуми Рапас в главной роли. Только прочитав описание и разглядев в актёрах Дугласа и Блума, вспомнил содержание детальнее.Вывод: смотреть хоть и интересно, но особого впечатления фильм на меня не произвёл.А может что то с памятью. Хотя первую "Миссия невыполнима" я смотрел лет 15 назад и помню фильм хорошо...pb.wtf



    Дорогой пользователь! Огромная просьба, поблагодарите релизера, оцените раздачу и оставьте свои комментарий, если Вы скачали Секретный агент через торрент бесплатно! Внесите свою лепту в развитие PiratBit!
    Комментировать посты могут только пользователи прошедшие не сложную регистрацию
    Показать сообщения:    

    Секретный агент через торрент
    Скачать бесплатно Секретный агент
    Секретный агент скачать торрент
    Секретный агент смотреть онлайн
    Cкачать фильм Секретный агент бесплатно
    Секретный агент скачать торрент в хорошем качестве
    Секретный агент смотреть онлайн бесплатно в хорошем качестве


    Вы не можете начинать темы
    Вы не можете отвечать на сообщения
    Вы не можете редактировать свои сообщения
    Вы не можете удалять свои сообщения
    Вы не можете голосовать в опросах
    Вы не можете прикреплять файлы к сообщениям
    Вы можете скачивать файлы