2 сезон

iTunes

1 сезон

1

iTunes

iTunes

iTunes

1 сезон

RePack

30

ИГРА 18+

pack

ВАЖНО

!!Акция!!

Alien_RageХит недели

RePack

MK11
pack

Забери бонус

RePack

jed

!!Акция!!

Alien_Rage

RePack

fifa19

RePack

Assassins Creed: Odyssey

RePack

NEED FOR SPEED™ PAYBACK

4 сезон

9 сезон

Бесстыжие 9 сезон

Все сериалы

все сериалы на PB.wtf

RePack

FAR CRY 5
  

Секретный агент / Unlocked (Майкл Аптед) [2017, боевик, триллер, BDRip 1080p] DUB [Лицензия] - ExKinoRay pb.wtf

Секретный агент через торрент pb.wtf

Размер: 11.27 GB | Добавлен: 3 года 1 мес. назад | Торрент скачан:167 раз
Скачать  

14-09-2017 04:29 Секретный агент Скачать торрент  

Информация о фильме
Название: Секретный агент
Оригинальное название: Unlocked
Год выхода: 2016
Жанр: Боевик, триллер
Страна: Великобритания
Студия: Bloom, Czech Anglo Productions, Di Bonaventura Pictures, Lip Sync Productions
Продолжительность: 01:38:22
Перевод: Дублированный | Лицензия
Режиссер: Майкл Эптед
В ролях: Нуми Рапас, Орландо Блум, Тони Коллетт, Майкл Дуглас, Джон Малкович, Акшай Кумар, Тосин Коул, Эделайо Эдедайо, Брайан Каспе, Аймен Хамдуши

Описание:
Она - секретный агент мирового уровня. На этот раз ее задача - предотвратить биологическую атаку на Лондон. Вовлеченная в большую шпионскую игру, она неизбежно сталкивается с миром двойных стандартов, паранойи, безнаказанности и предательства. Вокруг так много друзей, но кому из них на самом деле можно доверять? И кто из них тот неуловимый «крот», которого она должна вычислить, чтобы остановить террористов? Чтобы спасти Лондон, ей самой придется играть не по правилам...

rating

Файл
Формат: MKV
Качество: BDRip 1080p
Видео: MPEG-4 AVC, 1920x804, 13.5 Mbit/s, 24.000 fps
Звук:
Аудио #01: 48 kHz, DTS, 5.1, 1510 Kbps | Дублированный | RUS |
Аудио #02: 48 kHz, AC3, 5.1, 640 Kbps | Дублированный | RUS |
Аудио #03: 48 kHz, DTS, 5.1, 768 Kbps | Оригинал | ENG |
Субтитры: Русские, английские
General
Unique ID : 179347206788055771233273797977652899539 (0x86ED03FE54BA7EF3890032056B1CAED3)
Complete name : F:VideoUnlocked.2017.Lic.BDRip.1080p.ExKinoRay.mkv
Format : Matroska
Format version : Version 4 / Version 2
File size : 11.3 GiB
Duration : 1 h 38 min
Overall bit rate : 16.4 Mb/s
Encoded date : UTC 2017-09-14 00:46:23
Writing application : mkvmerge v15.0.0 ('Duel with the Devil') 64-bit
Writing library : libebml v1.3.5 + libmatroska v1.4.5

Video
ID : 1
Format : AVC
Format/Info : Advanced Video Codec
Format profile : High@L4.1
Format settings, CABAC : Yes
Format settings, RefFrames : 5 frames
Codec ID : V_MPEG4/ISO/AVC
Duration : 1 h 38 min
Bit rate : 13.5 Mb/s
Width : 1 920 pixels
Height : 804 pixels
Display aspect ratio : 2.40:1
Frame rate mode : Constant
Frame rate : 24.000 FPS
Color space : YUV
Chroma subsampling : 4:2:0
Bit depth : 8 bits
Scan type : Progressive
Bits/(Pixel*Frame) : 0.364
Stream size : 9.26 GiB (82%)
Writing library : x264 core 142 r2431+42 c69a006 tMod [8-bit@4:2:0 X86_64]
Encoding settings : cabac=1 / ref=5 / deblock=1:-3:-3 / analyse=0x3:0x113 / me=umh / subme=11 / psy=1 / fade_compensate=0.00 / psy_rd=1.05:0.00 / mixed_ref=1 / me_range=32 / chroma_me=1 / trellis=2 / 8x8dct=1 / cqm=0 / deadzone=21,11 / fast_pskip=0 / chroma_qp_offset=-2 / threads=12 / lookahead_threads=2 / sliced_threads=0 / nr=0 / decimate=0 / interlaced=0 / bluray_compat=0 / constrained_intra=0 / fgo=0 / bframes=9 / b_pyramid=2 / b_adapt=2 / b_bias=0 / direct=3 / weightb=1 / open_gop=0 / weightp=2 / keyint=250 / keyint_min=24 / scenecut=40 / intra_refresh=0 / rc_lookahead=60 / rc=crf / mbtree=0 / crf=17.8000 / qcomp=0.65 / qpmin=0:0:0 / qpmax=69:69:69 / qpstep=4 / vbv_maxrate=62500 / vbv_bufsize=78125 / crf_max=0.0 / nal_hrd=none / filler=0 / ip_ratio=1.30 / pb_ratio=1.20 / aq=3:0.80 / aq-sensitivity=10.00 / aq-factor=1.00:1.00:1.00 / aq2=0 / aq3=0 / zones=0,574,crf=13.8/19400,19551,crf=13.8/20300,20419,crf=13.8/20400,20594,crf=13.8/37600,37848,crf=13.8/48200,48281,crf=13.8/52950,53149,crf=13.8/56650,56738,crf=13.8/99000,99329,crf=13.8/100100,100242,crf=13.8/104429,104480,crf=13.8/106400,106454,crf=13.8/106900,106995,crf=13.8/107100,107175,crf=13.8/107300,107420,crf=13.8/110060,110321,crf=13.8
Language : English
Default : Yes
Forced : No
Color range : Limited
Color primaries : BT.709
Transfer characteristics : BT.709
Matrix coefficients : BT.709

Audio #1
ID : 2
Format : DTS
Format/Info : Digital Theater Systems
Mode : 16
Format settings, Endianness : Big
Codec ID : A_DTS
Duration : 1 h 38 min
Bit rate mode : Constant
Bit rate : 1 510 kb/s
Channel(s) : 6 channels
Channel positions : Front: L C R, Side: L R, LFE
Sampling rate : 48.0 kHz
Frame rate : 93.750 FPS (512 SPF)
Bit depth : 24 bits
Compression mode : Lossy
Stream size : 1.04 GiB (9%)
Title : Dub [License]
Language : Russian
Default : Yes
Forced : No

Audio #2
ID : 3
Format : AC-3
Format/Info : Audio Coding 3
Format settings, Endianness : Big
Codec ID : A_AC3
Duration : 1 h 38 min
Bit rate mode : Constant
Bit rate : 640 kb/s
Channel(s) : 6 channels
Channel positions : Front: L C R, Side: L R, LFE
Sampling rate : 48.0 kHz
Frame rate : 31.250 FPS (1536 SPF)
Bit depth : 16 bits
Compression mode : Lossy
Stream size : 450 MiB (4%)
Title : Dub [License]
Language : Russian
Service kind : Complete Main
Default : No
Forced : No

Audio #3
ID : 4
Format : DTS
Format/Info : Digital Theater Systems
Mode : 16
Format settings, Endianness : Big
Codec ID : A_DTS
Duration : 1 h 38 min
Bit rate mode : Constant
Bit rate : 768 kb/s
Channel(s) : 6 channels
Channel positions : Front: L C R, Side: L R, LFE
Sampling rate : 48.0 kHz
Frame rate : 93.750 FPS (512 SPF)
Bit depth : 24 bits
Compression mode : Lossy
Stream size : 540 MiB (5%)
Title : Original
Language : English
Default : No
Forced : No

Text #1
ID : 5
Format : UTF-8
Codec ID : S_TEXT/UTF8
Codec ID/Info : UTF-8 Plain Text
Duration : 1 h 10 min
Bit rate : 0 b/s
Count of elements : 2
Stream size : 50.0 Bytes (0%)
Title : Forced
Language : Russian
Default : Yes
Forced : No

Text #2
ID : 6
Format : UTF-8
Codec ID : S_TEXT/UTF8
Codec ID/Info : UTF-8 Plain Text
Duration : 1 h 30 min
Bit rate : 82 b/s
Count of elements : 1124
Stream size : 55.0 KiB (0%)
Title : Full
Language : Russian
Default : No
Forced : No

Text #3
ID : 7
Format : UTF-8
Codec ID : S_TEXT/UTF8
Codec ID/Info : UTF-8 Plain Text
Duration : 1 h 30 min
Bit rate : 55 b/s
Count of elements : 1065
Stream size : 36.8 KiB (0%)
Title : Full
Language : English
Default : No
Forced : No

Text #4
ID : 8
Format : UTF-8
Codec ID : S_TEXT/UTF8
Codec ID/Info : UTF-8 Plain Text
Duration : 1 h 30 min
Bit rate : 61 b/s
Count of elements : 1194
Stream size : 40.7 KiB (0%)
Title : SDH
Language : English
Default : No
Forced : No

Text #5
ID : 9
Format : UTF-8
Codec ID : S_TEXT/UTF8
Codec ID/Info : UTF-8 Plain Text
Duration : 1 h 30 min
Bit rate : 76 b/s
Count of elements : 1194
Stream size : 50.7 KiB (0%)
Title : SDH Colored
Language : English
Default : No
Forced : No

Menu
00:00:00.000 : en:00:00:00.000
00:07:36.583 : en:00:07:36.583
00:16:21.583 : en:00:16:21.583
00:23:34.417 : en:00:23:34.417
00:31:06.250 : en:00:31:06.250
00:38:49.125 : en:00:38:49.125
00:47:00.500 : en:00:47:00.500
00:53:55.333 : en:00:53:55.333
01:03:15.208 : en:01:03:15.208
01:09:50.250 : en:01:09:50.250
01:17:26.667 : en:01:17:26.667
01:24:01.542 : en:01:24:01.542
Релиз от: Автор релиза:

pb.wtf



Скачать Секретный агент через торрент http://s019.radikal.ru/i613/1709/43/41cdd9bde143.jpg Скачать фильм Секретный агент через торрент бесплантно в хорошем качестве Описание:Она - секретный агент мирового уровня. На этот раз ее задача - предотвратить биологическую атаку на Лондон. Вовлеченная в большую ... 10 10 5
Торрент: Зарегистрирован [2017-09-14 04:29] · скачан: 167 раз
Статус: √ проверено
Размер: 11.27 GB
Как cкачать? Как скачать Секретный агент через торрент | qTorrent

% Раздел Тема Автор DL S | L
Фильмы 2017 [DVDrip, WEB-DLRip, HDrip] (DUB, MVO) [ 1.44 GB ] Секретный агент / Unlocked [2017 BDRip-AVC] DUB [] - ExKinoRay Enigma2010 Скачать
1 | 0

28-11-2019 20:33  

Отключить всю рекламу на сайте

    Дорогой пользователь! Огромная просьба, поблагодарите релизера, оцените раздачу и оставьте свои комментарий, если Вы скачали Секретный агент через торрент бесплатно! Внесите свою лепту в развитие PiratBit!
    Комментировать посты могут только пользователи прошедшие не сложную регистрацию
    Показать сообщения:    

    Секретный агент через торрент
    Скачать бесплатно Секретный агент
    Секретный агент скачать торрент
    Секретный агент смотреть онлайн
    Cкачать фильм Секретный агент бесплатно
    Секретный агент скачать торрент в хорошем качестве
    Секретный агент смотреть онлайн бесплатно в хорошем качестве


    Вы не можете начинать темы
    Вы не можете отвечать на сообщения
    Вы не можете редактировать свои сообщения
    Вы не можете удалять свои сообщения
    Вы не можете голосовать в опросах
    Вы не можете прикреплять файлы к сообщениям
    Вы можете скачивать файлы