2 сезон

iTunes

MVO

1

2 сезон

iTunes

iTunes

1 сезон

RePack

30

Новинка

ВАЖНО

ИГРА 18+

pack

RePack

MK11
pack

Легкие деньги

RePack

jed

RePack

fifa19

RePack

RDR2

RePack

NEED FOR SPEED™ PAYBACK

4 сезон

9 сезон

Бесстыжие 9 сезон

Все сериалы

все сериалы на PB.wtf

RePack

FAR CRY 5

Anonymous, добрый день, мы не успеваем собрать деньги на оплату серверов за декабрь и январь, помогите нам пожалуйста в это трудное время. В качестве благодарности мы отключим Вам всю рекламу на сайте (укажите свой ник в строку Ваше имя)!

×
  
Magnet ссылка

Секретный агент / Unlocked (Майкл Аптед) [2017, боевик, триллер, BDRip-AVC] DUB [Лицензия] pb.wtf

Секретный агент через торрент pb.wtf

Размер: 1.87 GB | Добавлен: 3 года 4 мес. назад | Торрент скачан:343 раза
Скачать  

14-09-2017 07:52 Секретный агент Скачать торрент  

Секретный агент / Unlocked Год выпуска: 2017
Страна: Великобритания
Жанр: боевик, триллер
Продолжительность: 01:38:22
Перевод: Дублированный | Лицензия
Субтитры: Русские (форс., полн.), английские
Реклама: Отсутствует

Режиссер: Майкл Аптед

rating

В ролях:

Нуми Рапас, Орландо Блум, Тони Коллетт, Майкл Дуглас, Джон Малкович, Акшай Кумар, Аймен Хамдуши, Раффаэлло Дегруттола

Описание:

Она — секретный агент мирового уровня. На этот раз её задача — предотвратить биологическую атаку на Лондон. Вовлеченная в большую шпионскую игру, она неизбежно сталкивается с миром двойных стандартов, паранойи, безнаказанности и предательства. Вокруг так много друзей, но кому из них на самом деле можно доверять? И кто из них тот неуловимый «крот», которого она должна вычислить, чтобы остановить террористов..? Чтобы спасти Лондон, ей самой придётся играть не по правилам…


Качество: BDRip-AVC
Формат: MKV
Видео кодек: H.264
Аудио кодек: AC3

Видео: 1024x428 (2.40:1), 24.000 fps, x264 ~1834 kbps avg, 0.174 bit/pixel
Аудио#1: 48 kHz, AC3 Dolby Digital, 3/2 (L,C,R,l,r) + LFE ch, ~448.00 kbps avg | RUS (Лицензия)
Аудио#2: 48 kHz, AC3 Dolby Digital, 3/2 (L,C,R,l,r) + LFE ch, ~448.00 kbps avg | ENG
скриншот   скриншот   скриншот   скриншот   скриншот  

Общее
Уникальный идентификатор : 251551769886040777319011432833838460527 (0xBD3F1BCE6F9D788998C72154B0F3AE6F)
Полное имя : D:Unlocked.2016.BDRip(AVC).OlLanDGroup.mkv
Формат : Matroska
Версия формата : Version 2
Размер файла : 1,87 Гбайт
Продолжительность : 1 ч. 38 м.
Общий поток : 2723 Кбит/сек
Название фильма : Unlocked.2016 #TorpedoUK#
Дата кодирования : UTC 2017-09-14 02:52:12
Программа кодирования : mkvmerge v7.8.0 ('River Man') 32bit built on Apr 3 2015 12:11:22
Библиотека кодирования : libebml v1.3.1 + libmatroska v1.4.2

Видео
Идентификатор : 1
Формат : AVC
Формат/Информация : Advanced Video Codec
Профиль формата : High@L4.1
Параметр CABAC формата : Да
Параметр ReFrames формата : 10 кадров
Идентификатор кодека : V_MPEG4/ISO/AVC
Продолжительность : 1 ч. 38 м.
Битрейт : 1834 Кбит/сек
Ширина : 1024 пикселя
Высота : 428 пикселей
Соотношение сторон : 2,40:1
Режим частоты кадров : Постоянный
Частота кадров : 24,000 кадра/сек
Цветовое пространство : YUV
Субдискретизация насыщенности : 4:2:0
Битовая глубина : 8 бит
Тип развёртки : Прогрессивная
Бит/(Пиксели*Кадры) : 0.174
Размер потока : 1,22 Гбайт (65%)
Библиотека кодирования : x264 core 146 r2538 121396c
Настройки программы : cabac=1 / ref=10 / deblock=1:-3:-3 / analyse=0x3:0x133 / me=umh / subme=11 / psy=1 / psy_rd=1.00:0.07 / mixed_ref=1 / me_range=48 / chroma_me=1 / trellis=2 / 8x8dct=1 / cqm=0 / deadzone=21,11 / fast_pskip=0 / chroma_qp_offset=-3 / threads=6 / lookahead_threads=1 / sliced_threads=0 / nr=0 / decimate=0 / interlaced=0 / bluray_compat=0 / constrained_intra=0 / bframes=10 / b_pyramid=2 / b_adapt=2 / b_bias=0 / direct=3 / weightb=1 / open_gop=0 / weightp=2 / keyint=240 / keyint_min=23 / scenecut=40 / intra_refresh=0 / rc_lookahead=40 / rc=2pass / mbtree=0 / bitrate=1834 / ratetol=1.0 / qcomp=0.60 / qpmin=0 / qpmax=69 / qpstep=4 / cplxblur=20.0 / qblur=0.5 / vbv_maxrate=50000 / vbv_bufsize=62500 / nal_hrd=none / filler=0 / ip_ratio=1.40 / pb_ratio=1.30 / aq=1:1.00
Язык : English
Default : Да
Forced : Нет

Аудио #1
Идентификатор : 2
Формат : AC-3
Формат/Информация : Audio Coding 3
Расширение режима : CM (complete main)
Параметр Endianness формата : Big
Идентификатор кодека : A_AC3
Продолжительность : 1 ч. 38 м.
Вид битрейта : Постоянный
Битрейт : 448 Кбит/сек
Каналы : 6 каналов
Расположение каналов : Front: L C R, Side: L R, LFE
Частота : 48,0 КГц
Частота кадров : 31,250 кадров/сек (1536 spf)
Битовая глубина : 16 бит
Метод сжатия : С потерями
Размер потока : 315 Мбайт (16%)
Заголовок : License
Язык : Russian
Default : Да
Forced : Нет

Аудио #2
Идентификатор : 3
Формат : AC-3
Формат/Информация : Audio Coding 3
Расширение режима : CM (complete main)
Параметр Endianness формата : Big
Идентификатор кодека : A_AC3
Продолжительность : 1 ч. 38 м.
Вид битрейта : Постоянный
Битрейт : 448 Кбит/сек
Каналы : 6 каналов
Расположение каналов : Front: L C R, Side: L R, LFE
Частота : 48,0 КГц
Частота кадров : 31,250 кадров/сек (1536 spf)
Битовая глубина : 16 бит
Метод сжатия : С потерями
Размер потока : 315 Мбайт (16%)
Заголовок : Original
Язык : English
Default : Нет
Forced : Нет

Текст #1
Идентификатор : 4
Формат : UTF-8
Идентификатор кодека : S_TEXT/UTF8
Идентификатор кодека/Информация : UTF-8 Plain Text
Заголовок : Forced
Язык : Russian
Default : Да
Forced : Нет

Текст #2
Идентификатор : 5
Формат : UTF-8
Идентификатор кодека : S_TEXT/UTF8
Идентификатор кодека/Информация : UTF-8 Plain Text
Заголовок : Full
Язык : Russian
Default : Нет
Forced : Нет

Текст #3
Идентификатор : 6
Формат : UTF-8
Идентификатор кодека : S_TEXT/UTF8
Идентификатор кодека/Информация : UTF-8 Plain Text
Заголовок : Full
Язык : English
Default : Нет
Forced : Нет

Текст #4
Идентификатор : 7
Формат : UTF-8
Идентификатор кодека : S_TEXT/UTF8
Идентификатор кодека/Информация : UTF-8 Plain Text
Заголовок : SDH
Язык : English
Default : Нет
Forced : Нет

Текст #5
Идентификатор : 8
Формат : UTF-8
Идентификатор кодека : S_TEXT/UTF8
Идентификатор кодека/Информация : UTF-8 Plain Text
Заголовок : SDH Colored
Язык : English
Default : Нет
Forced : Нет

Меню
00:00:00.000 : en:00:00:00.000
00:07:36.582 : en:00:07:36.582
00:16:21.582 : en:00:16:21.582
00:23:34.415 : en:00:23:34.415
00:31:06.250 : en:00:31:06.250
00:38:49.125 : en:00:38:49.125
00:47:00.500 : en:00:47:00.500
00:53:55.333 : en:00:53:55.333
01:03:15.208 : en:01:03:15.208
01:09:50.250 : en:01:09:50.250
01:17:26.666 : en:01:17:26.666
01:24:01.541 : en:01:24:01.541

pb.wtf



Скачать Секретный агент через торрент http://s019.radikal.ru/i610/1709/e3/44f2d6bf2a8b.jpg Скачать фильм Секретный агент через торрент бесплантно в хорошем качестве Описание: Она — секретный агент мирового уровня. На этот раз её задача — предотвратить биологическую атаку на Лондон. Вовлеченная в большую ... 10 10 5
Торрент: Зарегистрирован [2017-09-14 07:52] · скачан: 343 раз
Статус: √ проверено
Размер: 1.87 GB
Как cкачать? Как скачать Секретный агент через торрент | UTorrent

% Раздел Тема Автор DL S | L
Видео для КПК и Смартфонов [ 374 MB ] Секретный агент / Unlocked [2017 HDRip КПК] DUB [] bober100 Скачать
2 | 0
Фильмы 2017 [DVDrip, WEB-DLRip, HDrip] (DUB, MVO) [ 745 MB ] Секретный агент / Unlocked [2017 WEB-DLRip] bober100 Скачать
2 | 0
Фильмы 2017 [DVDrip, WEB-DLRip, HDrip] (DUB, MVO) [ 1.46 GB ] Секретный агент / Unlocked [2017 BDRip] - [] Twi7ter Скачать
1 | 0
Фильмы 2017 [DVDrip, WEB-DLRip, HDrip] (DUB, MVO) [ 1.44 GB ] Секретный агент / Unlocked [2017 BDRip-AVC] DUB [] - ExKinoRay Enigma2010 Скачать
1 | 0
Фильмы (Blu-ray, BD-Remux, HDDVD) [ 22.35 GB ] Секретный агент / Unlocked [2017 Blu-ray 1080p] DUB [RUS Transfer] [ Blu-Ray RUS] bober100 Скачать
1 | 0
Фильмы (Blu-ray, BD-Remux, HDDVD) [ 26.06 GB ] Секретный агент / Unlocked [2017 BD Remux 1080p] DUB [US Transfer] [] bober100 Скачать
1 | 0
Фильмы [HD 720p, 1080p] (Хороший звук DUB, MVO) [ 11.27 GB ] Секретный агент / Unlocked [2017 BDRip 1080p] DUB [] - ExKinoRay Enigma2010 Скачать
2 | 0

28-11-2019 20:33  

Отключить всю рекламу на сайте

    Дорогой пользователь! Огромная просьба, поблагодарите релизера, оцените раздачу и оставьте свои комментарий, если Вы скачали Секретный агент через торрент бесплатно! Внесите свою лепту в развитие PiratBit!
    Комментировать посты могут только пользователи прошедшие не сложную регистрацию
    Показать сообщения:    

    Секретный агент через торрент
    Скачать бесплатно Секретный агент
    Секретный агент скачать торрент
    Секретный агент смотреть онлайн
    Cкачать фильм Секретный агент бесплатно
    Секретный агент скачать торрент в хорошем качестве
    Секретный агент смотреть онлайн бесплатно в хорошем качестве


    Вы не можете начинать темы
    Вы не можете отвечать на сообщения
    Вы не можете редактировать свои сообщения
    Вы не можете удалять свои сообщения
    Вы не можете голосовать в опросах
    Вы не можете прикреплять файлы к сообщениям
    Вы можете скачивать файлы