1 сезон

1 сезон

iTunes

1

iTunes

Кинопоиск HD

iTunes

13

1 сезон

RePack

30

Deluxe

ВАЖНО

ИГРА 18+

pack

RePack

MK11
pack

Легкие деньги

RePack

jed

RePack

fifa19

RePack

RDR2

RePack

NEED FOR SPEED™ PAYBACK

4 сезон

9 сезон

Бесстыжие 9 сезон

Все сериалы

все сериалы на PB.wtf

RePack

FAR CRY 5
  
Magnet ссылка

Поцелуй навылет / Kiss Kiss Bang Bang (Шейн Блэк) [2005, Боевик, комедия, криминал, BD Remux 1080p] DUB+MVO+2xAVO pb.wtf

Поцелуй навылет через торрент pb.wtf

Размер: 14.38 GB | Добавлен: 3 года 7 мес. назад | Торрент скачан:53 раза
Скачать  

14-09-2017 13:03 Поцелуй навылет Скачать торрент  

Поцелуй навылет / Kiss Kiss Bang BangГод выпуска: 2005
Страна: США
Жанр: Боевик, комедия, криминал
Продолжительность: 01:42:42
Перевод: Дубляж, Профессиональный многоголосый, Авторский
Субтитры: Русские, английские

Режиссер: Шейн Блэк

rating

В ролях:

Роберт Дауни мл., Вэл Килмер, Мишель Монахэн, Корбин Бернсен, Дэш Майок, Ларри Миллер, Рокмонд Данбар, Шаннин Соссамон, Анджела Линдвэлл, Индио Фалконер Дауни, Эриель Винтер, Дуан Карнахан, Джош Ричман, Марта Хэкетт, Нэнси Фиш, Билл МакАдамс мл., Таня Ричерт, Джэйк МакКиннон, Стефани Пирсон, Кристофер Гилман, Брендан Феили, Дэвид Ньюсом, Джуди Аронсон, Али Хиллис, Уайли М. Пикетт, Джо Кийес, Бобби Таттл, Джэйк Эберли, Саида Паган, Лела Эдгар, Дэниэл Браунинг Смит

Описание:

Зайдя на Рождество в нью-йоркский магазин игрушек, симпатичный вор Гарри Локхарт случайно нажимает на сигнализацию и, спасаясь бегством от полиции, попадает на кинопробы в детективный фильм. Продюсеру нравится его напористость, и он приглашает Гарри в Голливуд. Готовит Локхарта к кинопробе Перри ван Шрайк, настоящий сыщик, оказавшийся к тому же еще и гомосексуалистом. На роль главной героини претендует актриса Хармони Фэйт, с которой Гарри связывает общая любовь к детективным историям Джонни Госсамера. Однажды ночью Перри берет Гарри с собой на задание, и в итоге им приходится заняться расследованием убийства некоей женщины. Затем, как и в романе Госсамера, возникает еще одна детективная линия: сестра Хармони совершает самоубийство, которое, как выясняется, имеет прямое отношение к обнаруженному Перри и Гарри трупу...

Качество: BD Remux 1080p
Формат: MKV
Видео кодек: H.264
Аудио кодек: AC3

Видео: 16.9 Мбит/с, 1920x1080, 23.976 кадр/с
Аудио#1: Русский AC-3 , Dolby Digital 48000 Гц, 6 ch, 384 Кбит/сек - Дубляж
Аудио#2: Русский AC-3 , Dolby Digital 48000 Гц, 6 ch, 448 Кбит/сек - Профессиональный многоголосый (Tycoon)
Аудио#3: Русский AC-3 , Dolby Digital 48000 Гц, 6 ch, 640 Кбит/сек - Авторский (Гаврилов)
Аудио#4: Русский AC-3 , Dolby Digital 48000 Гц, 6 ch, 640 Кбит/сек - Авторский (Королёв)
Аудио#5: Английский AC-3 , Dolby Digital 48000 Гц, 6 ch, 640 Кбит/сек - Оригинал
Сатурн, 2006 год

Номинации (5):

Лучший актер (Роберт Дауни мл.)
Лучший актер второго плана (Вэл Килмер)
Лучшая актриса второго плана (Мишель Монахэн)
Лучшая музыка
Лучший приключенческий фильм, боевик или триллер

скриншот   скриншот   скриншот   скриншот   скриншот  

бщее
Уникальный идентификатор : 199644283080161730381678945007948378741 (0x9632171DF70E3D2689A12987A9DDB275)
Полное имя : D:\РЕМУКС!!!!!\РАЗ\Поцелуй навылет..mkv
Формат : Matroska
Версия формата : Version 4 / Version 2
Размер файла : 14,4 Гбайт
Продолжительность : 1 ч. 42 м.
Режим общего битрейта : Переменный
Общий поток : 20,1 Мбит/сек
Название фильма : Поцелуй навылет.BDRemux.thx:SPOMOPS.
Дата кодирования : UTC 2016-05-11 05:30:53
Программа кодирования : mkvmerge v6.1.0 ('Old Devil') built on Mar 4 2013 09:10:42
Библиотека кодирования : libebml v1.3.0 + libmatroska v1.4.0

Видео
Идентификатор : 1
Формат : MPEG Video
Версия формата : Version 2
Профиль формата : Main@High
Параметр BVOP формата : Нет
Параметр матрицы формата : Выборочная
Идентификатор кодека : V_MPEG2
Идентификатор кодека/Информация : MPEG 1 or 2 Video
Продолжительность : 1 ч. 42 м.
Вид битрейта : Переменный
Битрейт : 16,9 Мбит/сек
Максимальный битрейт : 30,0 Мбит/сек
Ширина : 1920 пикселей
Высота : 1080 пикселей
Соотношение сторон : 16:9
Режим частоты кадров : Постоянный
Частота кадров : 23,976 кадра/сек
Цветовое пространство : YUV
Субдискретизация насыщенности : 4:2:0
Битовая глубина : 8 бит
Тип развёртки : Прогрессивная
Метод сжатия : С потерями
Бит/(Пиксели*Кадры) : 0.340
Временной код первого кадра : 00:59:58:00
Оригинал временного кода : Group of pictures header
Размер потока : 12,1 Гбайт (84%)
Default : Да
Forced : Нет

Аудио #1
Идентификатор : 2
Формат : AC-3
Формат/Информация : Audio Coding 3
Расширение режима : CM (complete main)
Параметр Endianness формата : Big
Идентификатор кодека : A_AC3
Продолжительность : 1 ч. 42 м.
Вид битрейта : Постоянный
Битрейт : 384 Кбит/сек
Каналы : 6 каналов
Расположение каналов : Front: L C R, Side: L R, LFE
Частота : 48,0 КГц
Битовая глубина : 16 бит
Метод сжатия : С потерями
Задержка видео : 928 мс.
Размер потока : 282 Мбайт (2%)
Заголовок : Русский АСЗ 384 Кбит/сек - дубляж
Язык : Russian
Default : Да
Forced : Нет

Аудио #2
Идентификатор : 3
Формат : AC-3
Формат/Информация : Audio Coding 3
Расширение режима : CM (complete main)
Параметр Endianness формата : Big
Идентификатор кодека : A_AC3
Продолжительность : 1 ч. 42 м.
Вид битрейта : Постоянный
Битрейт : 448 Кбит/сек
Каналы : 6 каналов
Расположение каналов : Front: L C R, Side: L R, LFE
Частота : 48,0 КГц
Битовая глубина : 16 бит
Метод сжатия : С потерями
Задержка видео : 923 мс.
Размер потока : 329 Мбайт (2%)
Заголовок : Русский АСЗ 448 Кбит/сек - ПМ (Tycoon-studio)
Язык : Russian
Default : Нет
Forced : Нет

Аудио #3
Идентификатор : 4
Формат : AC-3
Формат/Информация : Audio Coding 3
Расширение режима : CM (complete main)
Параметр Endianness формата : Big
Идентификатор кодека : A_AC3
Продолжительность : 1 ч. 42 м.
Вид битрейта : Постоянный
Битрейт : 640 Кбит/сек
Каналы : 6 каналов
Расположение каналов : Front: L C R, Side: L R, LFE
Частота : 48,0 КГц
Битовая глубина : 16 бит
Метод сжатия : С потерями
Размер потока : 470 Мбайт (3%)
Заголовок : Русский АСЗ 640 Кбит/сек - АП (Гаврилов)
Язык : Russian
Default : Нет
Forced : Нет

Аудио #4
Идентификатор : 5
Формат : AC-3
Формат/Информация : Audio Coding 3
Расширение режима : CM (complete main)
Параметр Endianness формата : Big
Идентификатор кодека : A_AC3
Продолжительность : 1 ч. 42 м.
Вид битрейта : Постоянный
Битрейт : 640 Кбит/сек
Каналы : 6 каналов
Расположение каналов : Front: L C R, Side: L R, LFE
Частота : 48,0 КГц
Битовая глубина : 16 бит
Метод сжатия : С потерями
Размер потока : 470 Мбайт (3%)
Заголовок : Русский АСЗ 640 Кбит/сек - АП (Королёв)
Язык : Russian
Default : Нет
Forced : Нет

Аудио #5
Идентификатор : 6
Формат : AC-3
Формат/Информация : Audio Coding 3
Расширение режима : CM (complete main)
Параметр Endianness формата : Big
Идентификатор кодека : A_AC3
Продолжительность : 1 ч. 42 м.
Вид битрейта : Постоянный
Битрейт : 640 Кбит/сек
Каналы : 6 каналов
Расположение каналов : Front: L C R, Side: L R, LFE
Частота : 48,0 КГц
Битовая глубина : 16 бит
Метод сжатия : С потерями
Размер потока : 470 Мбайт (3%)
Заголовок : Английский АСЗ 640 Кбит/сек - оригинал
Язык : English
Default : Нет
Forced : Нет

Текст #1
Идентификатор : 7
Формат : UTF-8
Идентификатор кодека : S_TEXT/UTF8
Идентификатор кодека/Информация : UTF-8 Plain Text
Заголовок : Русские
Язык : Russian
Default : Нет
Forced : Нет

Текст #2
Идентификатор : 8
Формат : UTF-8
Идентификатор кодека : S_TEXT/UTF8
Идентификатор кодека/Информация : UTF-8 Plain Text
Заголовок : Английские
Язык : English
Default : Нет
Forced : Нет

Текст #3
Идентификатор : 9
Формат : UTF-8
Идентификатор кодека : S_TEXT/UTF8
Идентификатор кодека/Информация : UTF-8 Plain Text
Заголовок : Английские (SDH)
Язык : English
Default : Нет
Forced : Нет

Меню
00:00:00.000 : :Chapter 01
00:03:24.621 : :Chapter 02
00:08:24.754 : :Chapter 03
00:12:46.640 : :Chapter 04
00:17:19.288 : :Chapter 05
00:23:39.334 : :Chapter 06
00:25:27.901 : :Chapter 07
00:30:57.772 : :Chapter 08
00:33:35.054 : :Chapter 09
00:36:29.103 : :Chapter 10
00:38:38.899 : :Chapter 11
00:44:22.660 : :Chapter 12
00:46:42.341 : :Chapter 13
00:49:06.777 : :Chapter 14
00:52:15.590 : :Chapter 15
00:56:11.076 : :Chapter 16
00:59:23.893 : :Chapter 17
01:02:11.936 : :Chapter 18
01:05:45.566 : :Chapter 19
01:07:15.531 : :Chapter 20
01:11:07.888 : :Chapter 21
01:15:56.552 : :Chapter 22
01:19:11.830 : :Chapter 23
01:22:51.341 : :Chapter 24
01:26:11.040 : :Chapter 25
01:28:49.991 : :Chapter 26
01:32:10.691 : :Chapter 27
01:35:23.968 : :Chapter 28
01:38:30.321 : :Chapter 29

pb.wtf



Скачать Поцелуй навылет через торрент http://i44.fastpic.ru/big/2012/1020/11/4c689b7de1415a529a4f926ef173ff11.jpg Скачать фильм Поцелуй навылет через торрент бесплантно в хорошем качестве Описание: Зайдя на Рождество в нью-йоркский магазин игрушек, симпатичный вор Гарри Локхарт случайно нажимает на сигнализацию и, спасаясь ... 9.6 10 9
Info! Серебряная раздача, засчитывается только 50% скачанного.
Торрент: Зарегистрирован [2017-09-14 13:03] · скачан: 53 раз
Статус: √ проверено
Размер: 14.38 GB
Как cкачать? Как скачать Поцелуй навылет через торрент | UTorrent

28-11-2019 20:33  

Отключить всю рекламу на сайте

    Дорогой пользователь! Огромная просьба, поблагодарите релизера, оцените раздачу и оставьте свои комментарий, если Вы скачали Поцелуй навылет через торрент бесплатно! Внесите свою лепту в развитие PiratBit!
    Комментировать посты могут только пользователи прошедшие не сложную регистрацию
    Показать сообщения:    

    Поцелуй навылет через торрент
    Скачать бесплатно Поцелуй навылет
    Поцелуй навылет скачать торрент
    Поцелуй навылет смотреть онлайн
    Cкачать фильм Поцелуй навылет бесплатно
    Поцелуй навылет скачать торрент в хорошем качестве
    Поцелуй навылет смотреть онлайн бесплатно в хорошем качестве


    Вы не можете начинать темы
    Вы не можете отвечать на сообщения
    Вы не можете редактировать свои сообщения
    Вы не можете удалять свои сообщения
    Вы не можете голосовать в опросах
    Вы не можете прикреплять файлы к сообщениям
    Вы можете скачивать файлы