Ссылка на приватное зеркало всего за 1$. Внимание количество ограничено!!!

iTunes

iTunes

iTunes

1

iTunes

iTunes

iTunes

WEBRip

iTunes

30
pack

$ от Little Big

ВАЖНО

!!Акция!!

Alien_RageХит недели

RePack

Resident Evil 21

ИГРА 18+

pack

RePack

jed

!!Акция!!

Alien_Rage

RePack

fifa19

RePack

Assassins Creed: Odyssey

RePack

NEED FOR SPEED™ PAYBACK

4 сезон

9 сезон

Бесстыжие 9 сезон

Все сериалы

все сериалы на PB.wtf

RePack

FAR CRY 5
  

Здравствуйте, мы Ваша крыша! (Виталий Мухаметзянов) [2006 г., Комедия, DVDRip-AVC] от ExKinoRay pb.wtf

Здравствуйте, мы Ваша крыша! через торрент pb.wtf

Размер: 1.51 GB | Добавлен: 2 года 10 мес. назад | Торрент скачан:112 раз
Скачать  

15-09-2017 13:52 Здравствуйте, мы Ваша крыша! Скачать торрент  

Здравствуйте мы Ваша крыша!
Год выпуска: 2006
Страна: Россия
Жанр: Комедия
Продолжительность: 01:36:19

Режиссер: Виталий Мухаметзянов

Премьера в мире: 29 января 2006

rating

В ролях: Семён Стругачев, Андрей Федорцов, Михаил Полицеймако, Евгений Булдаков, Михаил Козаков, Инга Маневич, Петр Коршунков, Михаил Богдасаров, Мария Берсенева

Описание: Провинциальный бизнесмeн Кaприщeв должeн вeрнуть долг. Пытаясь собрать нужную сумму, он лишaется всех дeнeг, ценных бумаг, любовницы, офиса и едвa не сaмой жизни. На фоне падения Каприщева происходит альтернативный взлёт маляра Дубровского, проводящего ремонт в офисе Каприщева, к которому непостижимым для него самого образом перекочевывают все активы бизнесмена. И, ощутимо богатея прямо на глазах, Дубровский бросается очертя голову реализовывать все свои заветные мечты о лучшей жизни...

Качество: DVDRip-AVC
Формат: MKV
Видео кодек: MPEG4
Аудио кодек: AC3
Видео: MPEG-4 AVC, 1800 Кбит/с, 710x430@757x430, 25 кадров/сек
Аудио#1: AC3, 6 ch, 448 Кбит/с, 48 Кгц
Релиз от:




raw [info]: 710x430p 16:15 @ 25/1 fps (cfr)
x264 [info]: using SAR=16/15
x264 [info]: using cpu capabilities: MMX2 SSE2Fast LZCNT
x264 [info]: profile High, level 4.1
x264 [info]: frame I:1231 Avg QP:14.57 size: 53861
x264 [info]: frame P:33971 Avg QP:17.27 size: 18966
x264 [info]: frame B:109278 Avg QP:19.37 size: 5397
x264 [info]: consecutive B-frames: 2.4% 3.4% 13.5% 24.3% 12.1% 42.9% 0.9% 0.2% 0.2% 0.1% 0.0% 0.0% 0.0% 0.0% 0.1% 0.0% 0.1%
-----
Общее
Уникальный идентификатор : 180456935086334325568172446074713350734 (0x87C2BDD2A65BFABF8C8507B75733224E)
Полное имя : D:\Relizes\Mi.Wasa.Krisa.2005.DVDRip-AVC.ExKinoRay.mkv
Формат : Matroska
Версия формата : Version 2
Размер файла : 1,51 Гбайт
Продолжительность : 1 ч. 36 м.
Общий поток : 2250 Кбит/сек
Дата кодирования : UTC 2017-09-15 01:36:08
Программа кодирования : mkvmerge v7.8.0 ('River Man') 32bit built on Apr 3 2015 12:11:22
Библиотека кодирования : libebml v1.3.1 + libmatroska v1.4.2

Видео
Идентификатор : 1
Формат : AVC
Формат/Информация : Advanced Video Codec
Профиль формата : High@L4.1
Параметр CABAC формата : Да
Параметр ReFrames формата : 14 кадров
Идентификатор кодека : V_MPEG4/ISO/AVC
Продолжительность : 1 ч. 36 м.
Битрейт : 1800 Кбит/сек
Ширина : 710 пикселей
Высота : 430 пикселей
Соотношение сторон : 16:9
Соотношение сторон в оригинале : 16:9
Режим частоты кадров : Постоянный
Частота кадров : 25,000 кадров/сек
Цветовое пространство : YUV
Субдискретизация насыщенности : 4:2:0
Битовая глубина : 8 бит
Тип развёртки : Прогрессивная
Бит/(Пиксели*Кадры) : 0.236
Размер потока : 1,18 Гбайт (78%)
Библиотека кодирования : x264 core 148 r2638 7599210
Настройки программы : cabac=1 / ref=14 / deblock=1:-2:-2 / analyse=0x3:0x133 / me=umh / subme=10 / psy=1 / psy_rd=1.05:0.15 / mixed_ref=1 / me_range=32 / chroma_me=1 / trellis=2 / 8x8dct=1 / cqm=0 / deadzone=21,11 / fast_pskip=0 / chroma_qp_offset=-3 / threads=4 / lookahead_threads=1 / sliced_threads=0 / nr=0 / decimate=0 / interlaced=0 / bluray_compat=0 / constrained_intra=0 / bframes=16 / b_pyramid=2 / b_adapt=2 / b_bias=0 / direct=3 / weightb=1 / open_gop=0 / weightp=2 / keyint=250 / keyint_min=25 / scenecut=40 / intra_refresh=0 / rc=2pass / mbtree=0 / bitrate=1800 / ratetol=1.0 / qcomp=0.60 / qpmin=0 / qpmax=69 / qpstep=4 / cplxblur=20.0 / qblur=0.5 / ip_ratio=1.40 / pb_ratio=1.30 / aq=1:1.00
Язык : English
Default : Да
Forced : Нет
Цветовой диапазон : Limited
Основные цвета : BT.601 NTSC
Характеристики трансфера : BT.601
Коэффициенты матрицы : BT.601

Аудио
Идентификатор : 2
Формат : AC-3
Формат/Информация : Audio Coding 3
Расширение режима : CM (complete main)
Параметр Endianness формата : Big
Идентификатор кодека : A_AC3
Продолжительность : 1 ч. 36 м.
Вид битрейта : Постоянный
Битрейт : 448 Кбит/сек
Каналы : 6 каналов
Расположение каналов : Front: L C R, Side: L R, LFE
Частота : 48,0 КГц
Частота кадров : 31,250 кадров/сек (1536 spf)
Метод сжатия : С потерями
Размер потока : 309 Мбайт (20%)
Default : Да
Forced : Нет

pb.wtf



Скачать Здравствуйте, мы Ваша крыша! через торрент http://s019.radikal.ru/i610/1709/15/222e1c3462f5.jpg Скачать фильм Здравствуйте, мы Ваша крыша! через торрент бесплантно в хорошем качестве Описание: Провинциальный бизнесмeн Кaприщeв должeн вeрнуть долг. Пытаясь собрать нужную сумму, он лишaется всех дeнeг, ценных бумаг, ... 10 10 6
Info! Золотая раздача, скачанное не засчитывается.
Торрент: Зарегистрирован [2017-09-15 13:52] · скачан: 112 раз
Статус: √ проверено
Размер: 1.51 GB
Как cкачать? Как скачать Здравствуйте, мы Ваша крыша! через торрент | qTorrent

28-11-2019 20:33  

Отключить всю рекламу на сайте

15-09-2017 21:41 Здравствуйте, мы Ваша крыша! Скачать торрент  

Топик был перенесен из форума Оформление раздач (Кино, Видео и ТВ) в форум Наши фильмы, до 2010


schultzpb.wtf



    Дорогой пользователь! Огромная просьба, поблагодарите релизера, оцените раздачу и оставьте свои комментарий, если Вы скачали Здравствуйте, мы Ваша крыша! через торрент бесплатно! Внесите свою лепту в развитие PiratBit!
    Комментировать посты могут только пользователи прошедшие не сложную регистрацию
    Показать сообщения:    

    Здравствуйте, мы Ваша крыша! через торрент
    Скачать бесплатно Здравствуйте, мы Ваша крыша!
    Здравствуйте, мы Ваша крыша! скачать торрент
    Здравствуйте, мы Ваша крыша! смотреть онлайн
    Cкачать фильм Здравствуйте, мы Ваша крыша! бесплатно
    Здравствуйте, мы Ваша крыша! скачать торрент в хорошем качестве
    Здравствуйте, мы Ваша крыша! смотреть онлайн бесплатно в хорошем качестве


    Вы не можете начинать темы
    Вы не можете отвечать на сообщения
    Вы не можете редактировать свои сообщения
    Вы не можете удалять свои сообщения
    Вы не можете голосовать в опросах
    Вы не можете прикреплять файлы к сообщениям
    Вы можете скачивать файлы