Ссылка на приватное зеркало нашего сайта всего за 1$. Внимание количество ограничено!!!

2 сезон

iTunes

1 сезон

1

2 сезон

2 сезон

iTunes

1 сезон

RePack

30

Новинка

ВАЖНО

ИГРА 18+

pack

RePack

MK11
pack

Забери бонус

RePack

jed

!!Акция!!

Alien_Rage

RePack

fifa19

RePack

Assassins Creed: Odyssey

RePack

NEED FOR SPEED™ PAYBACK

4 сезон

9 сезон

Бесстыжие 9 сезон

Все сериалы

все сериалы на PB.wtf

RePack

FAR CRY 5
  

Двойка / The Deuce / Сезон 1 / Серия 1-8 из 8 (Джеймс Франко, Мишель МакЛарен, Ута Бризвитц) [2017, драма, WEB-DL 1080p] [MVO] (FocusStudio) pb.wtf

Двойка через торрент pb.wtf

Размер: 46.59 GB | Добавлен: 2 года 9 мес. назад | Торрент скачан:11 раз
Скачать  

15-09-2017 14:33 Двойка Скачать торрент  

Двойка / The Deuce

Год выпуска: 2017
Страна: США
Жанр: драма
Продолжительность: 01:25:15
Перевод: Профессиональный (многоголосый закадровый) *FocusStudio*

Режиссёр: Джеймс Франко, Мишель МакЛарен, Ута Бризвитц

В ролях: Джеймс Франко, Мэгги Джилленхол, Гари Карр, Маргарита Левиева, Лоуренс Гиллиард мл., Доминик Фишбэк, Эмили Мид, Гбенга Акиннагбе, Кристофер Бауэр и др.

Описание: Сериал рассказывает о жизни Нью-Йорка в 1970–1980 гг., когда порнография и проституция были широко распространены в этот период времени на Манхэттене.


Релиз --


Качество: WEB-DL 1080p
Формат: MKV
Видео: 1920x1080 (16:9), 23.976 fps, MPEG-4 AVC ~14000 kbps
Аудио: AC3, 48 kHz, 6 ch, 640 kbps, CBR - Rus
Аудио: AC3, 48 kHz, 6 ch, 640 kbps, CBR - Eng
Субтитры: Отсутствуют
General
Unique ID : 19954232488756455636701316097834961182 (0xF030B9E771317448AC0A3E0B587491E)
Complete name : The.Deuce.S01E01.WEB-DL.1080p.FocusStudio.mkv
Format : Matroska
Format version : Version 4 / Version 2
File size : 8.81 GiB
Duration : 1h 24mn
Overall bit rate mode : Variable
Overall bit rate : 14.9 Mbps
Movie name : The Deuce 1x01 @ FocusStudio
Encoded date : UTC 2017-09-13 15:52:42
Writing application : mkvmerge v15.0.0 ('Duel with the Devil') 64-bit
Writing library : libebml v1.3.5 + libmatroska v1.4.5

Video
ID : 1
Format : AVC
Format/Info : Advanced Video Codec
Format profile : High@L4.0
Format settings, CABAC : Yes
Format settings, ReFrames : 4 frames
Codec ID : V_MPEG4/ISO/AVC
Duration : 1h 24mn
Bit rate mode : Variable
Bit rate : 13.3 Mbps
Maximum bit rate : 15.0 Mbps
Width : 1 920 pixels
Height : 1 080 pixels
Display aspect ratio : 16:9
Frame rate mode : Constant
Frame rate : 23.976 fps
Color space : YUV
Chroma subsampling : 4:2:0
Bit depth : 8 bits
Scan type : Progressive
Bits/(Pixel*Frame) : 0.268
Stream size : 7.88 GiB (89%)
Default : Yes
Forced : No
Color primaries : BT.709
Transfer characteristics : BT.709
Matrix coefficients : BT.709

Audio #1
ID : 2
Format : AC-3
Format/Info : Audio Coding 3
Mode extension : CM (complete main)
Format settings, Endianness : Big
Codec ID : A_AC3
Duration : 1h 24mn
Bit rate mode : Constant
Bit rate : 640 Kbps
Channel(s) : 6 channels
Channel positions : Front: L C R, Side: L R, LFE
Sampling rate : 48.0 KHz
Bit depth : 16 bits
Compression mode : Lossy
Stream size : 388 MiB (4%)
Title : MVO FocusStudio
Language : Russian
Default : Yes
Forced : No

Audio #2
ID : 3
Format : AC-3
Format/Info : Audio Coding 3
Mode extension : CM (complete main)
Format settings, Endianness : Big
Codec ID : A_AC3
Duration : 1h 24mn
Bit rate mode : Constant
Bit rate : 640 Kbps
Channel(s) : 6 channels
Channel positions : Front: L C R, Side: L R, LFE
Sampling rate : 48.0 KHz
Bit depth : 16 bits
Compression mode : Lossy
Stream size : 388 MiB (4%)
Language : English
Default : No
Forced : No
Когда раздача ведётся путём добавления новых серий, при каждом добавлении создётся новый торрент. Чтобы начать докачку новой серии, пользователям необходимо сделать следующее:
(1) остановить скачивание,
(2) удалить старый торрент у себя из клиента (старые серии удалять не надо),
(3) скачать новый торрент и запустить его у себя в клиенте вместо старого, при этом указать клиенту путь в старую папку, куда и должно происходить скачивание новых серий.
Ваш клиент при этом должен произвести хеширование (проверку) старой папки (если не производит сам - помогите ему сделать это), и будет докачивать только те серии, которых у вас ещё нет. Старые серии при этом не удаляются, а продолжают раздаваться!
Eсли вы уже удалили старые серии, то предотвратить повторную закачку старых серий можно, отжав галочку в соответсвующих местах при запуске нового торрента. По возможности, желательно не удалять старые серии как можно дольше, чтобы релизёр не столько продолжал раздавать старые серии, а смог сконцентрироваться на новых.
скриншот  скриншот  скриншот  
pb.wtf



Скачать Двойка через торрент http://i91.fastpic.ru/big/2017/0915/b9/e8e700c62ec43098a0963f984a9027b9.jpg Скачать фильм Двойка через торрент бесплантно в хорошем качестве Описание: Сериал рассказывает о жизни Нью-Йорка в 1970–1980 гг., когда порнография и проституция были широко распространены в этот период ... 10 10 4
Info! Золотая раздача, скачанное не засчитывается.
Торрент: Зарегистрирован [2018-02-12 18:30] · скачан: 11 раз
Статус: √ проверено
Размер: 46.59 GB
Как cкачать? Как скачать Двойка через торрент | qTorrent

% Раздел Тема Автор DL S | L
Зарубежные сериалы [ 56.97 GB ] Двойка / The Deuce / Сезон 1 / Серия 1-8 из 8 [2017 WEBRip 1080p] [MVO] killermax2013 Скачать
1 | 0
Зарубежные сериалы [ 19.35 GB ] Двойка / The Deuce / Сезон: 3 / Серии: 1-8 из 8 [2019 WEB-DL 720p] MVO [TVShows] bober100 Скачать
1 | 0
Зарубежные сериалы [ 36.23 GB ] Двойка / The Deuce / Сезон: 3 / Серии: 1-8 из 8 [2019 WEB-DL 1080p] MVO [TVShows] bober100 Скачать
1 | 0
Зарубежные сериалы [ 20.72 GB ] Двойка / The Deuce / Сезон: 3 / Серии: 1-8 из 8 [2019 WEB-DL 720p] 2xMVO [Amedia TVShows] bober100 Скачать
1 | 0
Зарубежные сериалы [ 8.16 GB ] Двойка / The Deuce / Сезон: 3 / Серии: 1-8 из 8 [2019 WEB-DLRip] MVO [TVShows] bober100 Скачать
2 | 0
Зарубежные сериалы [ 35.35 GB ] Двойка / The Deuce / Сезон: 3 / Серии: 1-8 из 8 [2019 WEB-DL 1080p] MVO [Amedia] bober100 Скачать
1 | 0
Зарубежные сериалы [ 22.27 GB ] Двойка / The Deuce / Сезон: 3 / Серии: 1-5 из 8 [2019 WEB-DL 1080p] MVO [HDRezka Studio] bober100 Скачать
1 | 0


Последний раз редактировалось: killermax2013 (2018-02-12 18:30), всего редактировалось 2 раз(а)

28-11-2019 20:33  

Отключить всю рекламу на сайте

19-10-2017 13:28 Двойка Скачать торрент  

+2-4pb.wtf



22-10-2017 06:46 Двойка Скачать торрент  

+5-6pb.wtf



22-10-2017 10:47 Двойка Скачать торрент  

как фильм?что скажите?pb.wtf



23-10-2017 18:22 Двойка Скачать торрент  

эльдар053 писал(а):

как фильм?что скажите?

фильм годный)pb.wtf



12-02-2018 18:30 Двойка Скачать торрент  

+7-8pb.wtf



11-05-2018 07:29 Двойка Скачать торрент  

Чет слабовато на мой взгляд. Персонажи не раскрыты, что он творят и зачем хрен поймешь, есть ли у сериала какой то сюжет не понятно. Помоему сезон закончился ни чем. Одной то радости, что сиськи/письки кругом, да мат постоянно, дык и это уже не новинка.

PS Не смотря на то, что я качал и смотрел другую раздачу, раздающему спасибо.pb.wtf



    Дорогой пользователь! Огромная просьба, поблагодарите релизера, оцените раздачу и оставьте свои комментарий, если Вы скачали Двойка через торрент бесплатно! Внесите свою лепту в развитие PiratBit!
    Комментировать посты могут только пользователи прошедшие не сложную регистрацию
    Показать сообщения:    

    Двойка через торрент
    Скачать бесплатно Двойка
    Двойка скачать торрент
    Двойка смотреть онлайн
    Cкачать фильм Двойка бесплатно
    Двойка скачать торрент в хорошем качестве
    Двойка смотреть онлайн бесплатно в хорошем качестве


    Вы не можете начинать темы
    Вы не можете отвечать на сообщения
    Вы не можете редактировать свои сообщения
    Вы не можете удалять свои сообщения
    Вы не можете голосовать в опросах
    Вы не можете прикреплять файлы к сообщениям
    Вы можете скачивать файлы