Ссылка на приватное зеркало нашего сайта всего за 1$. Внимание количество ограничено!!!

2 сезон

iTunes

1 сезон

1

2 сезон

2 сезон

iTunes

1 сезон

RePack

30

Новинка

ВАЖНО

ИГРА 18+

pack

RePack

MK11
pack

Забери бонус

RePack

jed

!!Акция!!

Alien_Rage

RePack

fifa19

RePack

Assassins Creed: Odyssey

RePack

NEED FOR SPEED™ PAYBACK

4 сезон

9 сезон

Бесстыжие 9 сезон

Все сериалы

все сериалы на PB.wtf

RePack

FAR CRY 5
  

Спасатели Малибу / Baywatch (Сет Гордон) [2017, боевик, драма, комедия, BD Remux 1080р] DUB [EXTENDED/Расширенная версия] [Лицензия] pb.wtf

Спасатели Малибу через торрент pb.wtf

Размер: 26.44 GB | Добавлен: 3 года 2 мес. назад | Торрент скачан:57 раз
Скачать  

16-09-2017 04:21 Спасатели Малибу Скачать торрент  

Спасатели Малибу / Baywatch
[EXTENDED/Расширенная версия]
Год выпуска: 2017
Страна: США
Жанр: боевик, драма, комедия
Продолжительность: 02:01:23
Перевод: Дублированный | Лицензия
Субтитры: Русские (forced, full), английские

Режиссер: Сет Гордон

rating

В ролях:

Дуэйн Джонсон, Зак Эфрон, Александра Даддарио, Приянка Чопра, Келли Рорбах, Ильфенеш Хадера, Джон Басс, Яхья Абдул-Марин II, Хэннибал Бёресс, Роб Хюбель

Описание:

Группа пляжных спасателей работает на побережье Тихого океана. Они всегда находятся на своем посту и охраняют отдыхающих от несчастных случаев на воде. Главный герой, опытный спасатель Митч Бьюкеннон, и его молодой коллега Мэтт Броди случайно узнают, что их пляж находится под угрозой исчезновения. Большая нефтяная компания собирается разрушить побережье, преследуя личные интересы руководства, крепко завязанные на финансах.


Качество: BD Remux 1080р
Формат: MKV
Видео кодек: H.264
Аудио кодек: AC3

Видео: MPEG-4 AVC, 1920x1080, 25.8 Mbit/s, 23.976 fps
Аудио#1: 48 kHz, AC3, 5.1, 640 Kbps | Дублированный | RUS |
Аудио#2: 48 kHz, TrueHD, 7.1, 4685 Kbps | Оригинал | ENG |
скриншот   скриншот   скриншот   скриншот   скриншот  

General
Unique ID : 171216614119285839674870058296249329112 (0x80CF1ED33F8E3A55BFED0AB60A7AA5D8)
Complete name : F:VideoBaywatch.2017.Unrated.Lic.BDREMUX.1080p.ExKinoRay.mkv
Format : Matroska
Format version : Version 4 / Version 2
File size : 26.4 GiB
Duration : 2 h 1 min
Overall bit rate mode : Variable
Overall bit rate : 31.2 Mb/s
Encoded date : UTC 2017-09-16 03:27:48
Writing application : mkvmerge v15.0.0 ('Duel with the Devil') 64-bit
Writing library : libebml v1.3.5 + libmatroska v1.4.5

Video
ID : 1
Format : AVC
Format/Info : Advanced Video Codec
Format profile : High@L4.1
Format settings, CABAC : Yes
Format settings, RefFrames : 2 frames
Codec ID : V_MPEG4/ISO/AVC
Duration : 2 h 1 min
Bit rate mode : Variable
Bit rate : 25.8 Mb/s
Width : 1 920 pixels
Height : 1 080 pixels
Display aspect ratio : 16:9
Frame rate mode : Constant
Frame rate : 23.976 (24000/1001) FPS
Color space : YUV
Chroma subsampling : 4:2:0
Bit depth : 8 bits
Scan type : Progressive
Bits/(Pixel*Frame) : 0.519
Stream size : 21.9 GiB (83%)
Language : English
Default : Yes
Forced : No

Audio #1
ID : 2
Format : AC-3
Format/Info : Audio Coding 3
Format settings, Endianness : Big
Codec ID : A_AC3
Duration : 2 h 1 min
Bit rate mode : Constant
Bit rate : 640 kb/s
Channel(s) : 6 channels
Channel positions : Front: L C R, Side: L R, LFE
Sampling rate : 48.0 kHz
Frame rate : 31.250 FPS (1536 SPF)
Bit depth : 16 bits
Compression mode : Lossy
Stream size : 556 MiB (2%)
Title : Dub [License]
Language : Russian
Service kind : Complete Main
Default : Yes
Forced : No

Audio #2
ID : 3
Format : TrueHD
Format profile : TrueHD+Atmos / TrueHD
Codec ID : A_TRUEHD
Duration : 2 h 1 min
Bit rate mode : Variable
Bit rate : 4 685 kb/s
Maximum bit rate : 7 380 kb/s
Channel(s) : Object Based / 8 channels
Channel positions : Object Based / Front: L C R, Side: L R, Back: L R, LFE
Sampling rate : / 48.0 kHz
Frame rate : 1 200.000 FPS (40 SPF)
Compression mode : Lossless
Stream size : 3.97 GiB (15%)
Title : Original
Language : English
Default : No
Forced : No

Text #1
ID : 4
Format : UTF-8
Codec ID : S_TEXT/UTF8
Codec ID/Info : UTF-8 Plain Text
Duration : 1 h 30 min
Bit rate : 1 b/s
Count of elements : 20
Stream size : 987 Bytes (0%)
Title : Forced
Language : Russian
Default : Yes
Forced : No

Text #2
ID : 5
Format : UTF-8
Codec ID : S_TEXT/UTF8
Codec ID/Info : UTF-8 Plain Text
Duration : 2 h 0 min
Bit rate : 100 b/s
Count of elements : 2023
Stream size : 88.2 KiB (0%)
Title : Full
Language : Russian
Default : No
Forced : No

Text #3
ID : 6
Format : UTF-8
Codec ID : S_TEXT/UTF8
Codec ID/Info : UTF-8 Plain Text
Duration : 1 h 54 min
Bit rate : 81 b/s
Count of elements : 2118
Stream size : 67.8 KiB (0%)
Title : Full
Language : English
Default : No
Forced : No

Text #4
ID : 7
Format : UTF-8
Codec ID : S_TEXT/UTF8
Codec ID/Info : UTF-8 Plain Text
Duration : 1 h 56 min
Bit rate : 87 b/s
Count of elements : 2414
Stream size : 74.9 KiB (0%)
Title : SDH
Language : English
Default : No
Forced : No

Menu
00:00:00.000 : en:1
00:08:54.000 : en:2
00:16:52.000 : en:3
00:20:59.000 : en:4
00:29:38.000 : en:5
00:38:00.000 : en:6
00:44:51.000 : en:7
00:50:29.000 : en:8
01:01:25.000 : en:9
01:11:43.000 : en:10
01:19:38.000 : en:11
01:28:54.000 : en:12
01:35:16.000 : en:13
01:44:24.000 : en:14
01:49:59.000 : en:15
01:54:44.000 : en:16

pb.wtf



Скачать Спасатели Малибу через торрент http://s16.radikal.ru/i191/1709/9a/54792042f866.jpg Скачать фильм Спасатели Малибу через торрент бесплантно в хорошем качестве Описание: Группа пляжных спасателей работает на побережье Тихого океана. Они всегда находятся на своем посту и охраняют отдыхающих от ... 10 10 4
Info! Золотая раздача, скачанное не засчитывается.
Торрент: Зарегистрирован [2017-09-16 04:21] · скачан: 57 раз
Статус: √ проверено
Размер: 26.44 GB
Как cкачать? Как скачать Спасатели Малибу через торрент | qTorrent

% Раздел Тема Автор DL S | L
Зарубежные сериалы [ 135.56 GB ] Спасатели Малибу / Baywatch / Сезон: 1-9 из 9 / Серии: 1-198 из 198 [1989-1999 WEB-DLRip] [MVO] killermax2013 Скачать
1 | 0
Зарубежные сериалы [ 94.34 GB ] Спасатели Малибу / Baywatch / Сезон: 3 / Серии: 1-22 из 22 [1992-1993 WEB-DL 1080p] [MVO] killermax2013 Скачать
1 | 0
Зарубежные сериалы [ 89.55 GB ] Спасатели Малибу / Baywatch / Сезон: 8 / Серии: 1-22 из 22 [1997-1998 WEB-DL 1080p] MVO [Живи!] bober100 Скачать
1 | 0
Зарубежные сериалы [ 89.58 GB ] Спасатели Малибу / Baywatch / Сезон: 7 / Серии: 1-22 из 22 [1996-1997 WEB-DL 1080p] [MVO] killermax2013 Скачать
1 | 0
Зарубежные сериалы [ 90.39 GB ] Спасатели Малибу / Baywatch / Сезон: 6 / Серии: 1-22 из 22 [1995-1996 WEB-DL 1080p] [MVO] killermax2013 Скачать
1 | 0
Зарубежные сериалы [ 92.62 GB ] Спасатели Малибу / Baywatch / Сезон: 5 / Серии: 1-22 из 22 [1994-1995 WEB-DL 1080p] MVO [Sony Turbo] bober100 Скачать
1 | 0
Зарубежные сериалы [ 93.18 GB ] Спасатели Малибу / Baywatch / Сезон: 4 / Серии: 1-22 из 22 [1993-1994 WEB-DL 1080p] [MVO] killermax2013 Скачать
1 | 0

28-11-2019 20:33  

Отключить всю рекламу на сайте

    Дорогой пользователь! Огромная просьба, поблагодарите релизера, оцените раздачу и оставьте свои комментарий, если Вы скачали Спасатели Малибу через торрент бесплатно! Внесите свою лепту в развитие PiratBit!
    Комментировать посты могут только пользователи прошедшие не сложную регистрацию
    Показать сообщения:    

    Спасатели Малибу через торрент
    Скачать бесплатно Спасатели Малибу
    Спасатели Малибу скачать торрент
    Спасатели Малибу смотреть онлайн
    Cкачать фильм Спасатели Малибу бесплатно
    Спасатели Малибу скачать торрент в хорошем качестве
    Спасатели Малибу смотреть онлайн бесплатно в хорошем качестве


    Вы не можете начинать темы
    Вы не можете отвечать на сообщения
    Вы не можете редактировать свои сообщения
    Вы не можете удалять свои сообщения
    Вы не можете голосовать в опросах
    Вы не можете прикреплять файлы к сообщениям
    Вы можете скачивать файлы