Ссылка на приватное зеркало всего за 1$. Внимание количество ограничено!!!

OK

1+1

iTunes

мы

OK

1

WEB-DLRip

Джокер

Пифагор

Ведьмак / The Witcher сериал

Лицензия

ПШазам

ОК

Оно 2

iTunes

30
pack

Вам бонус

ВАЖНО

!!Акция!!

Alien_RageХит недели

RePack

Resident Evil 21

ИГРА 18+

pack

RePack

jed

RePack

fifa19

RePack

Assassins Creed: Odyssey

RePack

NEED FOR SPEED™ PAYBACK

4 сезон

9 сезон

Бесстыжие 9 сезон

Все сериалы

все сериалы на PB.wtf

RePack

FAR CRY 5
  

Спасатели Малибу / Baywatch (Сет Гордон) [2017, боевик, драма, комедия, BDRip 720p от potroks] [Расширенная версия] Dub [Лицензия] pb.wtf

Спасатели Малибу через торрент pb.wtf

Размер: 5.76 GB | Добавлен: 2 года 4 мес. назад | Торрент скачан:275 раз
Скачать  

16-09-2017 06:52 Спасатели Малибу Скачать торрент  


Спасатели Малибу / Baywatch
««Вытряхни песок из плавок»»

ИНФОРМАЦИЯ:
Год выпуска:2017
Страна: США
Жанр: боевик, драма, комедия

Продолжительность: 02:01:22
Перевод: Дубляж - [Blu-ray EUR]
Субтитры: русские (полные + форс.), английские (Full + SDH + SDH-Colored)
Режиссер: Сет Гордон

В Ролях:


Дуэйн Джонсон (Mitch Buchannon), Зак Эфрон (Matt Brody), Приянка Чопра (Victoria Leeds), Александра Даддарио (Summer Quinn), Келли Рорбах (CJ Parker), Ильфенеш Хадера (Stephanie Holden), Джон Басс (Ronnie Greenbaum), Яхья Абдул-Марин II (Sgt. Ellerbee), Хэннибал Бёресс (Dave the Tech), Роб Хюбель (Captain Thorpe), Эймин Джозеф (Frankie), Джек Кеси (Leon)

ОПИСАНИЕ:
Группа пляжных спасателей работает на побережье Тихого океана. Они всегда находятся на своем посту и охраняют отдыхающих от несчастных случаев на воде. Главный герой, опытный спасатель Митч Бьюкеннон, и его молодой коллега Мэтт Броди случайно узнают, что их пляж находится под угрозой исчезновения. Большая нефтяная компания собирается разрушить побережье, преследуя личные интересы руководства, крепко завязанные на финансах.

  • Мировая премьера:12 мая 2017

    ТЕХ.ДАННЫЕ:
    Качество: BDRip 720p
    Формат: MKV
    Видео: AVC, 1280x536 (2.40:1), 5899 kbps, 23,976 fps
    Аудио №1: AC3 / 5.1 / 48 kHz / 448 kbps | RUS
    Аудио №2: AC3 / 5.1 / 48 kHz / 448 kbps | ENG
    Навигация по главам: есть

    General
    Unique ID : 243267802994301960621302929620071496820 (0xB703ACB47FD7F4ACB917380FEEE23C74)
    Complete name : D:\Spasateli.Malibu.2017.DUAL.BDRip.720p.-HELLYWOOD.mkv
    Format : Matroska
    Format version : Version 4 / Version 2
    File size : 5.76 GiB
    Duration : 2 h 1 min
    Overall bit rate : 6 796 kb/s
    Movie name : Baywatch (2017)
    Encoded date : UTC 2017-09-16 04:55:51
    Writing application : mkvmerge v5.9.0 ('On The Loose') built on Dec 15 2012 16:39:58
    Writing library : libebml v1.3.0 + libmatroska v1.4.0

    Video
    ID : 1
    Format : AVC
    Format/Info : Advanced Video Codec
    Format profile : High@L4.1
    Format settings, CABAC : Yes
    Format settings, ReFrames : 9 frames
    Codec ID : V_MPEG4/ISO/AVC
    Duration : 2 h 1 min
    Bit rate : 5 899 kb/s
    Width : 1 280 pixels
    Height : 536 pixels
    Display aspect ratio : 2.40:1
    Frame rate mode : Constant
    Frame rate : 23.976 (24000/1001) FPS
    Color space : YUV
    Chroma subsampling : 4:2:0
    Bit depth : 8 bits
    Scan type : Progressive
    Bits/(Pixel*Frame) : 0.359
    Stream size : 4.89 GiB (85%)
    Title : potroks
    Writing library : x264 core 152 r2851M ba24899
    Encoding settings : cabac=1 / ref=9 / deblock=1:-2:-2 / analyse=0x3:0x132 / me=umh / subme=11 / psy=1 / psy_rd=1.00:0.05 / mixed_ref=1 / me_range=48 / chroma_me=1 / trellis=2 / 8x8dct=1 / cqm=0 / deadzone=21,11 / fast_pskip=0 / chroma_qp_offset=-3 / threads=9 / lookahead_threads=2 / sliced_threads=0 / nr=0 / decimate=0 / interlaced=0 / bluray_compat=0 / constrained_intra=0 / bframes=11 / b_pyramid=2 / b_adapt=2 / b_bias=0 / direct=3 / weightb=1 / open_gop=0 / weightp=2 / keyint=240 / keyint_min=23 / scenecut=40 / intra_refresh=0 / rc_lookahead=0 / rc=2pass / mbtree=0 / bitrate=5899 / ratetol=1.0 / qcomp=0.70 / qpmin=0 / qpmax=69 / qpstep=4 / cplxblur=20.0 / qblur=0.5 / vbv_maxrate=62500 / vbv_bufsize=44642 / nal_hrd=none / filler=0 / ip_ratio=1.40 / pb_ratio=1.30 / aq=1:0.70
    Language : English
    Default : Yes
    Forced : No

    Audio #1
    ID : 2
    Format : AC-3
    Format/Info : Audio Coding 3
    Mode extension : CM (complete main)
    Format settings, Endianness : Big
    Codec ID : A_AC3
    Duration : 2 h 1 min
    Bit rate mode : Constant
    Bit rate : 448 kb/s
    Channel(s) : 6 channels
    Channel positions : Front: L C R, Side: L R, LFE
    Sampling rate : 48.0 kHz
    Frame rate : 31.250 FPS (1536 spf)
    Compression mode : Lossy
    Stream size : 389 MiB (7%)
    Title : Dub | DD 5.1 @ 448 kbps - Blu-ray EUR
    Language : Russian
    Default : Yes
    Forced : No

    Audio #2
    ID : 3
    Format : AC-3
    Format/Info : Audio Coding 3
    Mode extension : CM (complete main)
    Format settings, Endianness : Big
    Codec ID : A_AC3
    Duration : 2 h 1 min
    Bit rate mode : Constant
    Bit rate : 448 kb/s
    Channel(s) : 6 channels
    Channel positions : Front: L C R, Side: L R, LFE
    Sampling rate : 48.0 kHz
    Frame rate : 31.250 FPS (1536 spf)
    Compression mode : Lossy
    Stream size : 389 MiB (7%)
    Title : Original | DD 5.1 @ 448 kbps
    Language : English
    Default : No
    Forced : No

    Text #1
    ID : 4
    Format : UTF-8
    Codec ID : S_TEXT/UTF8
    Codec ID/Info : UTF-8 Plain Text
    Title : Forced
    Language : Russian
    Default : Yes
    Forced : No

    Text #2
    ID : 5
    Format : UTF-8
    Codec ID : S_TEXT/UTF8
    Codec ID/Info : UTF-8 Plain Text
    Title : iTunes
    Language : Russian
    Default : No
    Forced : No

    Text #3
    ID : 6
    Format : UTF-8
    Codec ID : S_TEXT/UTF8
    Codec ID/Info : UTF-8 Plain Text
    Title : Full
    Language : English
    Default : No
    Forced : No

    Text #4
    ID : 7
    Format : UTF-8
    Codec ID : S_TEXT/UTF8
    Codec ID/Info : UTF-8 Plain Text
    Title : SDH
    Language : English
    Default : No
    Forced : No

    Text #5
    ID : 8
    Format : UTF-8
    Codec ID : S_TEXT/UTF8
    Codec ID/Info : UTF-8 Plain Text
    Title : SDH-Colored
    Language : English
    Default : No
    Forced : No

    Menu
    00:00:00.000 : en:1
    00:08:54.000 : en:2
    00:16:52.000 : en:3
    00:20:59.000 : en:4
    00:29:38.000 : en:5
    00:38:00.000 : en:6
    00:44:51.000 : en:7
    00:50:29.000 : en:8
    01:01:25.000 : en:9
    01:11:43.000 : en:10
    01:19:38.000 : en:11
    01:28:54.000 : en:12
    01:35:16.000 : en:13
    01:44:24.000 : en:14
    01:49:59.000 : en:15
    01:54:44.000 : en:16
    Скриншоты:

    © Оформление by .::Ворон::.
    pb.wtf



  • Скачать Спасатели Малибу через торрент http://pic.kartinco.top/images/6/ordi9.jpg Скачать фильм Спасатели Малибу через торрент бесплантно в хорошем качестве Е:Группа пляжных спасателей работает на побережье Тихого океана. Они всегда находятся на своем посту и охраняют отдыхающих от несчастных ... 10 10 6
    Info! Золотая раздача, скачанное не засчитывается.
    Торрент: Зарегистрирован [2017-09-16 06:52] · скачан: 275 раз
    Статус: √ проверено
    Размер: 5.76 GB
    Как cкачать? Как скачать Спасатели Малибу через торрент | qTorrent

    % Раздел Тема Автор DL S | L
    Зарубежные сериалы [ 94.34 GB ] Спасатели Малибу / Baywatch / Сезон: 3 / Серии: 1-22 из 22 [1992-1993 WEB-DL 1080p] [MVO] killermax2013 Скачать
    1 | 0
    Зарубежные сериалы [ 89.55 GB ] Спасатели Малибу / Baywatch / Сезон: 8 / Серии: 1-22 из 22 [1997-1998 WEB-DL 1080p] MVO [Живи!] bober100 Скачать
    1 | 0
    Зарубежные сериалы [ 89.58 GB ] Спасатели Малибу / Baywatch / Сезон: 7 / Серии: 1-22 из 22 [1996-1997 WEB-DL 1080p] [MVO] killermax2013 Скачать
    1 | 0
    Зарубежные сериалы [ 90.39 GB ] Спасатели Малибу / Baywatch / Сезон: 6 / Серии: 1-22 из 22 [1995-1996 WEB-DL 1080p] [MVO] killermax2013 Скачать
    1 | 0
    Зарубежные сериалы [ 92.62 GB ] Спасатели Малибу / Baywatch / Сезон: 5 / Серии: 1-22 из 22 [1994-1995 WEB-DL 1080p] MVO [Sony Turbo] bober100 Скачать
    1 | 0
    Зарубежные сериалы [ 93.18 GB ] Спасатели Малибу / Baywatch / Сезон: 4 / Серии: 1-22 из 22 [1993-1994 WEB-DL 1080p] [MVO] killermax2013 Скачать
    1 | 0
    Зарубежные сериалы [ 94.08 GB ] Спасатели Малибу / Baywatch / Сезон: 2 / Серии: 1-22 из 22 [1991-1992 WEB-DL 1080p] [MVO] killermax2013 Скачать
    1 | 0

    28-11-2019 20:33  

    Отключить всю рекламу на сайте

      Дорогой пользователь! Огромная просьба, поблагодарите релизера, оцените раздачу и оставьте свои комментарий, если Вы скачали Спасатели Малибу через торрент бесплатно! Внесите свою лепту в развитие PiratBit!
      Комментировать посты могут только пользователи прошедшие не сложную регистрацию
      Показать сообщения:    

      Спасатели Малибу через торрент
      Скачать бесплатно Спасатели Малибу
      Спасатели Малибу скачать торрент
      Спасатели Малибу смотреть онлайн
      Cкачать фильм Спасатели Малибу бесплатно
      Спасатели Малибу скачать торрент в хорошем качестве
      Спасатели Малибу смотреть онлайн бесплатно в хорошем качестве


      Вы не можете начинать темы
      Вы не можете отвечать на сообщения
      Вы не можете редактировать свои сообщения
      Вы не можете удалять свои сообщения
      Вы не можете голосовать в опросах
      Вы не можете прикреплять файлы к сообщениям
      Вы можете скачивать файлы