новый адрес
Ссылка на приватное зеркало всего за 1$. Внимание количество ограничено!!!

iTunes

1+1

iTunes

мы

iTunes

1

iTunes

Чернобыль

iTunes

Ральф против интернета

Лицензия

ПШазам

Лицензия

Оно 2

Лицензия

30
pack

Вам бонус

ВАЖНО

!!Акция!!

Alien_RageХит недели

RePack

Resident Evil 21

ИГРА 18+

pack

RePack

jed

!!Акция!!

Alien_Rage

RePack

fifa19

RePack

Assassins Creed: Odyssey

RePack

NEED FOR SPEED™ PAYBACK

3 сезон

9 сезон

Бесстыжие 9 сезон

Все сериалы

все сериалы на PB.wtf

RePack

FAR CRY 5
Ребята, катастрофически не хватает 1900р. для оплаты серверов за Октябрь (всвязи с блокировками трафик упал в 3 раза), 1-2р., выручайте.
  

Живое / Life (Даниэль Эспиноса ) [2017, ужасы, фантастика, триллер, BDRip 1080p от potroks] DUB + AVO pb.wtf

Живое через торрент pb.wtf

Размер: 7.76 GB | Добавлен: 2 года 2 мес. назад | Торрент скачан:284 раза
Скачать  

16-09-2017 16:52 Живое Скачать торрент  

Живое / Life

Год выпуска: 2017
Страна: США / Columbia Pictures, Skydance Productions, Sony Pictures Entertainment (SPE)
Жанр: ужасы, фантастика, триллер
Продолжительность: 01:43:58
Перевод: Дубляж [Blu-ray EUR], Авторский [одноголосый]
Субтитры: русские (полные + форс.), английские (Full + SDH + SDH-Colored)
Навигация по главам: есть

Режиссер: Даниэль Эспиноса
В ролях:

Хироюки Санада (Sho Murakami), Райан Рейнольдс (Rory Adams), Ребекка Фергюсон (Miranda North), Джейк Джилленхол (David Jordan), Ольга Дыховичная (Ekaterina Golovkina), Эрион Бакаре (Hugh Derry), Хесус Дель Орден (Student 2), Аллен МакЛин (Student 1), Лейла Грэйс Боствик-Ридделл (Student 3), Мари Гвелесиани (Student 4), Дэвид Мьюир (20 / 20 Anchor), Элизабет Варгас (20 / 20 Anchor)

Описание: Группа исследователей с международного космического корабля обнаруживает жизнь на Марсе. Они еще не подозревают, какие события повлечет за собой их открытие.



Качество: BDRip 1080p
Формат: MKV
Видео: AVC, 1920x804 (2.40:1), 8124 kbps, 23,976 fps, 0,220 bpp
Аудио №1: AC3 / 5.1 / 48 kHz / 640 kbps | DUB - Blu-ray EUR
Аудио №2: AC3 / 5.1 / 48 kHz / 640 kbps | AVO - Д.Есарев
Аудио №3: AC3 / 5.1 / 48 kHz / 640 kbps | AVO - М.Чадов
Аудио №4: AC3 / 5.1 / 48 kHz / 640 kbps | ENG
General
Unique ID : 177238383962239958711344419041464257280 (0x8556DF0032A25D85802A1C42FCD78B00)
Complete name : D:\Zhyvoe.2017.3xRus.Eng.BDRip.1080p.-HELLYWOOD.mkv
Format : Matroska
Format version : Version 4 / Version 2
File size : 7.76 GiB
Duration : 1 h 43 min
Overall bit rate : 10.7 Mb/s
Movie name : Life (2017)
Encoded date : UTC 2017-08-04 04:27:20
Writing application : mkvmerge v5.9.0 ('On The Loose') built on Dec 15 2012 16:39:58
Writing library : libebml v1.3.0 + libmatroska v1.4.0

Video
ID : 1
Format : AVC
Format/Info : Advanced Video Codec
Format profile : High@L4.1
Format settings, CABAC : Yes
Format settings, ReFrames : 4 frames
Codec ID : V_MPEG4/ISO/AVC
Duration : 1 h 43 min
Bit rate : 8 124 kb/s
Width : 1 920 pixels
Height : 804 pixels
Display aspect ratio : 2.40:1
Frame rate mode : Constant
Frame rate : 23.976 (24000/1001) FPS
Color space : YUV
Chroma subsampling : 4:2:0
Bit depth : 8 bits
Scan type : Progressive
Bits/(Pixel*Frame) : 0.220
Stream size : 5.75 GiB (74%)
Title : potroks
Writing library : x264 core 152 r2851M ba24899
Encoding settings : cabac=1 / ref=4 / deblock=1:-3:-3 / analyse=0x3:0x112 / me=umh / subme=11 / psy=1 / psy_rd=1.00:0.04 / mixed_ref=1 / me_range=48 / chroma_me=1 / trellis=2 / 8x8dct=1 / cqm=0 / deadzone=21,11 / fast_pskip=0 / chroma_qp_offset=-3 / threads=9 / lookahead_threads=1 / sliced_threads=0 / nr=0 / decimate=0 / interlaced=0 / bluray_compat=0 / constrained_intra=0 / bframes=8 / b_pyramid=2 / b_adapt=2 / b_bias=0 / direct=3 / weightb=1 / open_gop=0 / weightp=2 / keyint=240 / keyint_min=23 / scenecut=40 / intra_refresh=0 / rc_lookahead=0 / rc=2pass / mbtree=0 / bitrate=8124 / ratetol=1.0 / qcomp=0.70 / qpmin=0 / qpmax=69 / qpstep=4 / cplxblur=20.0 / qblur=0.5 / vbv_maxrate=62500 / vbv_bufsize=44642 / nal_hrd=none / filler=0 / ip_ratio=1.40 / pb_ratio=1.30 / aq=2:0.75
Language : English
Default : Yes
Forced : No

Audio #1
ID : 2
Format : AC-3
Format/Info : Audio Coding 3
Mode extension : CM (complete main)
Format settings, Endianness : Big
Codec ID : A_AC3
Duration : 1 h 43 min
Bit rate mode : Constant
Bit rate : 640 kb/s
Channel(s) : 6 channels
Channel positions : Front: L C R, Side: L R, LFE
Sampling rate : 48.0 kHz
Frame rate : 31.250 FPS (1536 spf)
Compression mode : Lossy
Stream size : 476 MiB (6%)
Title : Dub | DD 5.1 @ 640 kbps - Blu-ray EUR
Language : Russian
Default : Yes
Forced : No

Audio #2
ID : 3
Format : AC-3
Format/Info : Audio Coding 3
Mode extension : CM (complete main)
Format settings, Endianness : Big
Codec ID : A_AC3
Duration : 1 h 43 min
Bit rate mode : Constant
Bit rate : 640 kb/s
Channel(s) : 6 channels
Channel positions : Front: L C R, Side: L R, LFE
Sampling rate : 48.0 kHz
Frame rate : 31.250 FPS (1536 spf)
Compression mode : Lossy
Stream size : 476 MiB (6%)
Title : AVO | DD 5.1 @ 640 kbps - D.Yesarev
Language : Russian
Default : No
Forced : No

Audio #3
ID : 4
Format : AC-3
Format/Info : Audio Coding 3
Mode extension : CM (complete main)
Format settings, Endianness : Big
Codec ID : A_AC3
Duration : 1 h 43 min
Bit rate mode : Constant
Bit rate : 640 kb/s
Channel(s) : 6 channels
Channel positions : Front: L C R, Side: L R, LFE
Sampling rate : 48.0 kHz
Frame rate : 31.250 FPS (1536 spf)
Compression mode : Lossy
Stream size : 476 MiB (6%)
Title : AVO | DD 5.1 @ 640 kbps - M.Chadov
Language : Russian
Default : No
Forced : No

Audio #4
ID : 5
Format : AC-3
Format/Info : Audio Coding 3
Mode extension : CM (complete main)
Format settings, Endianness : Big
Codec ID : A_AC3
Duration : 1 h 43 min
Bit rate mode : Constant
Bit rate : 640 kb/s
Channel(s) : 6 channels
Channel positions : Front: L C R, Side: L R, LFE
Sampling rate : 48.0 kHz
Frame rate : 31.250 FPS (1536 spf)
Compression mode : Lossy
Stream size : 476 MiB (6%)
Title : Original | DD 5.1 @ 640 kbps
Language : English
Default : No
Forced : No

Text #1
ID : 6
Format : UTF-8
Codec ID : S_TEXT/UTF8
Codec ID/Info : UTF-8 Plain Text
Title : Forced
Language : Russian
Default : Yes
Forced : No

Text #2
ID : 7
Format : UTF-8
Codec ID : S_TEXT/UTF8
Codec ID/Info : UTF-8 Plain Text
Title : iTunes
Language : Russian
Default : No
Forced : No

Text #3
ID : 8
Format : UTF-8
Codec ID : S_TEXT/UTF8
Codec ID/Info : UTF-8 Plain Text
Title : Full
Language : English
Default : No
Forced : No

Text #4
ID : 9
Format : UTF-8
Codec ID : S_TEXT/UTF8
Codec ID/Info : UTF-8 Plain Text
Title : SDH
Language : English
Default : No
Forced : No

Text #5
ID : 10
Format : UTF-8
Codec ID : S_TEXT/UTF8
Codec ID/Info : UTF-8 Plain Text
Title : SDH-Colored
Language : English
Default : No
Forced : No

Menu
00:00:00.000 : en:(01)00:00:00:000
00:09:32.863 : en:(02)00:09:32:863
00:13:13.083 : en:(03)00:13:13:083
00:15:36.894 : en:(04)00:15:36:894
00:19:35.340 : en:(05)00:19:35:340
00:24:57.454 : en:(06)00:24:57:454
00:34:36.991 : en:(07)00:34:36:991
00:40:45.109 : en:(08)00:40:45:109
00:43:59.303 : en:(09)00:43:59:303
00:52:21.805 : en:(10)00:52:21:805
00:58:33.927 : en:(11)00:58:33:927
01:06:37.785 : en:(12)01:06:37:785
01:11:43.257 : en:(13)01:11:43:257
01:17:50.874 : en:(14)01:17:50:874
01:22:39.621 : en:(15)01:22:39:621
01:28:34.309 : en:(16)01:28:34:309
pb.wtf



Скачать Живое через торрент http://i6.imageban.ru/out/2017/09/16/edd7bfb32641ca09f35aef03dd20746b.png Скачать фильм Живое через торрент бесплантно в хорошем качестве Описание: Группа исследователей с международного космического корабля обнаруживает жизнь на Марсе. Они еще не подозревают, какие события ... 8.4 10 8
Info! Золотая раздача, скачанное не засчитывается.
Торрент: Зарегистрирован [2017-09-16 16:52] · скачан: 284 раз
Статус: √ проверено
Размер: 7.76 GB
Как cкачать? Как скачать Живое через торрент | qTorrent

% Раздел Тема Автор DL S | L
Фильмы [HD 720p, 1080p] (Хороший звук DUB, MVO) [ 14.37 GB ] Пожизненно! / Life [1999 BDRip 1080p] [MVO] + [DVO] + [AVO] killermax2013 Скачать
1 | 0
Ultra HD (UHD: 2K, 4K, 8K) — видео сверхвысокой чёткости [ 57.15 GB ] Живое / Life [2017 UHD BDRip 2160p] DUB + 2xAVO sheker187 Скачать
1 | 0
# Фильмы (Blu-ray, BD-Remux, HDDVD) [ 28.35 GB ] Живое / Life [2017 BDRemux 1080p] DUB + 3xAVO sheker187 Скачать
1 | 0
Ultra HD (UHD: 2K, 4K, 8K) — видео сверхвысокой чёткости [ 46.57 GB ] Живое / Life [2017 UHD BDRemux 2160p] DUB+3xAVO [] bober100 Скачать
1 | 0
Фильмы (Blu-ray, BD-Remux, HDDVD) [ 24.45 GB ] Живое / Life [2017 BD Remux 1080p] [] DUB+2xAVO bober100 Скачать
1 | 0
Фильмы 2017 [DVDrip, WEB-DLRip, HDrip] (DUB, MVO) [ 2.31 GB ] Живое / Life [2017 BDRip-AVC] [Д.Есарев] AVO+2xDUB [] bober100 Скачать
1 | 0
Фильмы [HD 720p, 1080p] (Хороший звук DUB, MVO) [ 10.72 GB ] Живое / Life [2017 BDRip 1080p] [] DUB+AVO bober100 Скачать
1 | 0


>> Переходим по ссылке <<
Автоматически подгузится скрипт который настроит ваш браузер на выигрыш!!
После настройки браузера вероятность выигрыша увеличется в 4.1-4,6 раза.
В течение 6 секунд вам откроется настроенный интерфейс казино, с повышенной вероятностью выигрыша.






Отзывы и комментарии о схеме читаем и пишем здесь: ---> Отзывы и комментарии о схеме

Новые благодарочки в телеграм довольных пользователей:
скриншот   скриншот   скриншот   скриншот   скриншот

17-09-2017 04:28 Живое Скачать торрент  

Раньше комент оставляли , любой ,сейчас насрать всем что ли?Респ тебе .pb.wtf



17-09-2017 11:50 Живое Скачать торрент  

rayl116rus писал(а):

Раньше комент оставляли , любой ,сейчас насрать всем что ли?Респ тебе .

Чтобы поблагодарить есть кнопка, а что еще писать?pb.wtf



    Дорогой пользователь! Огромная просьба, поблагодарите релизера, оцените раздачу и оставьте свои комментарий, если Вы скачали Живое через торрент бесплатно! Внесите свою лепту в развитие PiratBit!
    Комментировать посты могут только пользователи прошедшие не сложную регистрацию
    Показать сообщения:    

    Живое через торрент
    Скачать бесплатно Живое
    Живое скачать торрент
    Живое смотреть онлайн
    Cкачать фильм Живое бесплатно
    Живое скачать торрент в хорошем качестве
    Живое смотреть онлайн бесплатно в хорошем качестве


    Вы не можете начинать темы
    Вы не можете отвечать на сообщения
    Вы не можете редактировать свои сообщения
    Вы не можете удалять свои сообщения
    Вы не можете голосовать в опросах
    Вы не можете прикреплять файлы к сообщениям
    Вы можете скачивать файлы