2 сезон

iTunes

MVO

1

2 сезон

iTunes

iTunes

1 сезон

RePack

30

Ultimate

ВАЖНО

ИГРА 18+

pack

RePack

MK11
pack

Легкие деньги

RePack

jed

RePack

fifa19

RePack

RDR2

RePack

NEED FOR SPEED™ PAYBACK

4 сезон

9 сезон

Бесстыжие 9 сезон

Все сериалы

все сериалы на PB.wtf

RePack

FAR CRY 5

Anonymous, добрый день, мы не успеваем собрать деньги на оплату серверов за декабрь и январь, помогите нам пожалуйста в это трудное время. В качестве благодарности мы отключим Вам всю рекламу на сайте (укажите свой ник в строку Ваше имя)!

×
  
Magnet ссылка

Спасатели Малибу / Baywatch (Сет Гордон / Seth Gordon) [2017, США, боевик, драма, комедия, BDRip-AVC] [Расширенная версия] Dub [Лицензия] pb.wtf

Спасатели Малибу через торрент pb.wtf

Размер: 2.94 GB | Добавлен: 3 года 4 мес. назад | Торрент скачан:537 раз
Скачать  

16-09-2017 18:16 Спасатели Малибу Скачать торрент  

Спасатели Малибу
Baywatch

«Вытряхни песок из плавок»

Расширенная версия / Extended Cut



Страна: США
Жанр: боевик, драма, комедия

Год выпуска: 2017
Продолжительность: 02:01:22

Перевод: Профессиональный (полное дублирование) [Blu-ray EUR]
Субтитры: русские (форсированные, полные), английские (полные, SDH)
Оригинальная аудиодорожка: английский

Режиссер: Сет Гордон / Seth Gordon

В ролях: Дуэйн Джонсон, Зак Эфрон, Приянка Чопра, Александра Даддарио, Келли Рорбах, Ильфенеш Хадера, Джон Басс, Яхья Абдул-Марин II, Хэннибал Бёресс, Роб Хюбель, Эймин Джозеф, Джек Кеси

Описание:
Группа пляжных спасателей работает на побережье Тихого океана. Они всегда находятся на своем посту и охраняют отдыхающих от несчастных случаев на воде. Главный герой, опытный спасатель Митч Бьюкеннон, и его молодой коллега Мэтт Броди случайно узнают, что их пляж находится под угрозой исчезновения. Большая нефтяная компания собирается разрушить побережье, преследуя личные интересы руководства, крепко завязанные на финансах.



Релиз:

Автор рипа: stalkerok | Моя группа

Сэмпл

Качество видео: BDRip-AVC [BAYWATCH_EUR_BLUEBIRD]
Формат видео: MKV
Видео кодек: AVC
Аудио кодек: AC3
Видео: 2565 Кбит/сек, 1022*428 (2,40:1), в 23,976 (24000/1001) кадра/сек, AVC
Аудио #1: русский, 448 Кбит/сек, 48,0 КГц, 6 каналов, AC-3
Аудио #2: английский, 448 Кбит/сек, 48,0 КГц, 6 каналов, AC-3
Навигация по главам: нет

x264 [info]: frame I:2362 Avg QP:15.75 size: 64138
x264 [info]: frame P:44170 Avg QP:17.62 size: 24602
x264 [info]: frame B:128074 Avg QP:20.78 size: 8560

Общее
Уникальный идентификатор : 172780990181807018411426681610846497914 (0x81FC68851DE9CA3E995268438A7E6C7A)
Полное имя : M:\!Rips2017\Baywatch\Baywatch.2017.BDRip-AVC.RUS.ENG.stalkerok.new-team.mkv
Формат : Matroska
Версия формата : Version 4 / Version 2
Размер файла : 2,94 Гбайт
Продолжительность : 2 ч. 1 м.
Общий поток : 3463 Кбит/сек
Название фильма : Baywatch (2017) (Rip by stalkerok)
Дата кодирования : UTC 2017-09-16 18:01:40
Программа кодирования : mkvmerge v8.6.1 ('Flying') 64bit
Библиотека кодирования : libebml v1.3.3 + libmatroska v1.4.4

Видео
Идентификатор : 1
Формат : AVC
Формат/Информация : Advanced Video Codec
Профиль формата : High@L4.1
Параметр CABAC формата : Да
Параметр ReFrames формата : 13 кадров
Идентификатор кодека : V_MPEG4/ISO/AVC
Продолжительность : 2 ч. 1 м.
Битрейт : 2565 Кбит/сек
Ширина : 1022 пикселя
Высота : 428 пикселей
Соотношение сторон : 2,40:1
Режим частоты кадров : Постоянный
Частота кадров : 23,976 (24000/1001) кадра/сек
Цветовое пространство : YUV
Субдискретизация насыщенности : 4:2:0
Битовая глубина : 8 бит
Тип развёртки : Прогрессивная
Бит/(Пиксели*Кадры) : 0.245
Размер потока : 2,17 Гбайт (74%)
Заголовок : Baywatch (2017) (Rip by stalkerok)
Библиотека кодирования : x264 core 150 r2833kMod df79067
Настройки программы : cabac=1 / ref=13 / deblock=1:-3:-2 / analyse=0x3:0x133 / me=umh / subme=11 / psy=1 / fade_compensate=0.00 / psy_rd=1.00:0.00 / mixed_ref=1 / me_range=32 / chroma_me=1 / trellis=2 / 8x8dct=1 / cqm=0 / deadzone=21,11 / fast_pskip=0 / chroma_qp_offset=-2 / threads=12 / lookahead_threads=3 / sliced_threads=0 / nr=0 / decimate=1 / interlaced=0 / bluray_compat=0 / constrained_intra=0 / bframes=13 / b_pyramid=2 / b_adapt=2 / b_bias=0 / direct=3 / weightb=1 / open_gop=0 / weightp=2 / keyint=240 / keyint_min=23 / scenecut=40 / intra_refresh=0 / rc_lookahead=60 / rc=crf / mbtree=0 / crf=16.8000 / qcomp=0.65 / qpmin=0 / qpmax=69 / qpstep=4 / vbv_maxrate=50000 / vbv_bufsize=62500 / crf_max=0.0 / nal_hrd=none / filler=0 / ip_ratio=1.40 / pb_ratio=1.30 / aq=3:0.80
Default : Да
Forced : Нет

Аудио #1
Идентификатор : 2
Формат : AC-3
Формат/Информация : Audio Coding 3
Расширение режима : CM (complete main)
Параметр Endianness формата : Big
Идентификатор кодека : A_AC3
Продолжительность : 2 ч. 1 м.
Вид битрейта : Постоянный
Битрейт : 448 Кбит/сек
Каналы : 6 каналов
Расположение каналов : Front: L C R, Side: L R, LFE
Частота : 48,0 КГц
Частота кадров : 31,250 кадров/сек (1536 spf)
Метод сжатия : С потерями
Размер потока : 389 Мбайт (13%)
Язык : Russian
Default : Да
Forced : Нет

Аудио #2
Идентификатор : 3
Формат : AC-3
Формат/Информация : Audio Coding 3
Расширение режима : CM (complete main)
Параметр Endianness формата : Big
Идентификатор кодека : A_AC3
Продолжительность : 2 ч. 1 м.
Вид битрейта : Постоянный
Битрейт : 448 Кбит/сек
Каналы : 6 каналов
Расположение каналов : Front: L C R, Side: L R, LFE
Частота : 48,0 КГц
Частота кадров : 31,250 кадров/сек (1536 spf)
Метод сжатия : С потерями
Размер потока : 389 Мбайт (13%)
Язык : English
Default : Нет
Forced : Нет

Текст #1
Идентификатор : 4
Формат : UTF-8
Идентификатор кодека : S_TEXT/UTF8
Идентификатор кодека/Информация : UTF-8 Plain Text
Продолжительность : 1 ч. 59 м.
Битрейт : 0 бит/сек
Count of elements : 11
Размер потока : 551 байт (0%)
Заголовок : Forced
Язык : Russian
Default : Да
Forced : Нет

Текст #2
Идентификатор : 5
Формат : UTF-8
Идентификатор кодека : S_TEXT/UTF8
Идентификатор кодека/Информация : UTF-8 Plain Text
Продолжительность : 2 ч. 0 м.
Битрейт : 100 бит/сек
Count of elements : 2023
Размер потока : 88,2 Кбайт (0%)
Заголовок : iTunes
Язык : Russian
Default : Нет
Forced : Нет

Текст #3
Идентификатор : 6
Формат : UTF-8
Идентификатор кодека : S_TEXT/UTF8
Идентификатор кодека/Информация : UTF-8 Plain Text
Продолжительность : 1 ч. 54 м.
Битрейт : 82 бит/сек
Count of elements : 2186
Размер потока : 68,9 Кбайт (0%)
Язык : English
Default : Нет
Forced : Нет

Текст #4
Идентификатор : 7
Формат : UTF-8
Идентификатор кодека : S_TEXT/UTF8
Идентификатор кодека/Информация : UTF-8 Plain Text
Продолжительность : 1 ч. 56 м.
Битрейт : 87 бит/сек
Count of elements : 2415
Размер потока : 75,1 Кбайт (0%)
Заголовок : SDH
Язык : English
Default : Нет
Forced : Нет

Меню
00:00:00.000 : en:Chapter 1
00:08:55.534 : en:Chapter 2
00:16:54.346 : en:Chapter 3
00:21:01.802 : en:Chapter 4
00:29:40.945 : en:Chapter 5
00:38:03.614 : en:Chapter 6
00:44:55.067 : en:Chapter 7
00:50:33.447 : en:Chapter 8
01:01:29.936 : en:Chapter 9
01:11:48.804 : en:Chapter 10
01:19:44.654 : en:Chapter 11
01:29:00.793 : en:Chapter 12
01:35:23.175 : en:Chapter 13
01:44:31.640 : en:Chapter 14
01:50:07.267 : en:Chapter 15
01:54:52.427 : en:Chapter 16
скриншот   скриншот   скриншот   скриншот   скриншот   скриншот  
pb.wtf



Скачать Спасатели Малибу через торрент http://img12.lostpic.net/2017/09/15/4289e31c4180f15d10ed00428e766b36.png Скачать фильм Спасатели Малибу через торрент бесплантно в хорошем качестве Описание:Группа пляжных спасателей работает на побережье Тихого океана. Они всегда находятся на своем посту и охраняют отдыхающих от ... 9.5 10 6
Info! Золотая раздача, скачанное не засчитывается.
Торрент: Зарегистрирован [2017-09-16 18:16] · скачан: 537 раз
Статус: √ проверено
Размер: 2.94 GB
Как cкачать? Как скачать Спасатели Малибу через торрент | UTorrent

% Раздел Тема Автор DL S | L
Зарубежные сериалы [ 135.56 GB ] Спасатели Малибу / Baywatch / Сезон: 1-9 из 9 / Серии: 1-198 из 198 [1989-1999 WEB-DLRip] [MVO] killermax2013 Скачать
1 | 0
Зарубежные сериалы [ 94.34 GB ] Спасатели Малибу / Baywatch / Сезон: 3 / Серии: 1-22 из 22 [1992-1993 WEB-DL 1080p] [MVO] killermax2013 Скачать
1 | 0
Зарубежные сериалы [ 89.55 GB ] Спасатели Малибу / Baywatch / Сезон: 8 / Серии: 1-22 из 22 [1997-1998 WEB-DL 1080p] MVO [Живи!] bober100 Скачать
1 | 0
Зарубежные сериалы [ 89.58 GB ] Спасатели Малибу / Baywatch / Сезон: 7 / Серии: 1-22 из 22 [1996-1997 WEB-DL 1080p] [MVO] killermax2013 Скачать
1 | 0
Зарубежные сериалы [ 90.39 GB ] Спасатели Малибу / Baywatch / Сезон: 6 / Серии: 1-22 из 22 [1995-1996 WEB-DL 1080p] [MVO] killermax2013 Скачать
1 | 0
Зарубежные сериалы [ 92.62 GB ] Спасатели Малибу / Baywatch / Сезон: 5 / Серии: 1-22 из 22 [1994-1995 WEB-DL 1080p] MVO [Sony Turbo] bober100 Скачать
1 | 0
Зарубежные сериалы [ 93.18 GB ] Спасатели Малибу / Baywatch / Сезон: 4 / Серии: 1-22 из 22 [1993-1994 WEB-DL 1080p] [MVO] killermax2013 Скачать
1 | 0

28-11-2019 20:33  

Отключить всю рекламу на сайте


    Дорогой пользователь! Огромная просьба, поблагодарите релизера, оцените раздачу и оставьте свои комментарий, если Вы скачали Спасатели Малибу через торрент бесплатно! Внесите свою лепту в развитие PiratBit!
    Комментировать посты могут только пользователи прошедшие не сложную регистрацию
    Показать сообщения:    

    Спасатели Малибу через торрент
    Скачать бесплатно Спасатели Малибу
    Спасатели Малибу скачать торрент
    Спасатели Малибу смотреть онлайн
    Cкачать фильм Спасатели Малибу бесплатно
    Спасатели Малибу скачать торрент в хорошем качестве
    Спасатели Малибу смотреть онлайн бесплатно в хорошем качестве


    Вы не можете начинать темы
    Вы не можете отвечать на сообщения
    Вы не можете редактировать свои сообщения
    Вы не можете удалять свои сообщения
    Вы не можете голосовать в опросах
    Вы не можете прикреплять файлы к сообщениям
    Вы можете скачивать файлы