Ссылка на приватное зеркало нашего сайта всего за 1$. Внимание количество ограничено!!!

2 сезон

iTunes

1 сезон

1

iTunes

iTunes

iTunes

1 сезон

RePack

30

ИГРА 18+

pack

ВАЖНО

!!Акция!!

Alien_RageХит недели

RePack

MK11
pack

Забери бонус

RePack

jed

!!Акция!!

Alien_Rage

RePack

fifa19

RePack

Assassins Creed: Odyssey

RePack

NEED FOR SPEED™ PAYBACK

4 сезон

9 сезон

Бесстыжие 9 сезон

Все сериалы

все сериалы на PB.wtf

RePack

FAR CRY 5
  

Хочу быть счастливой / Серия 1-4 из 4 / (Сергей Гиргель) [2017 г., Мелодрама, SATRip] pb.wtf

Хочу быть счастливой через торрент pb.wtf

Размер: 2.14 GB | Добавлен: 3 года 1 мес. назад | Торрент скачан:93 раза
Скачать  

17-09-2017 03:17 Хочу быть счастливой Скачать торрент  

Хочу быть счастливой / Серия 1-4 из 4 /
Год выпуска: 2017
Страна: Россия
Жанр: Мелодрама
Продолжительность: 4х-00:44:25
Субтитры: нет

Режиссер: Сергей Гиргель

В ролях: Светлана Тимофеева-Летуновская, Игорь Сигов, Марина Куделинская, Дарья Пармененкова, Валентина Гарцуева, Сергей Власов, Сергей Лапаницын, Елизавета Фалей, Елена Акулёнок, Алла Ельяшевич, Валерия Мельник, Марта Голубева, Оксана Чивелёва

Описание: Людмиле почти 50. Она всегда мечтала о большой семье, но так случилось, что муж ушел от нее к другой женщине, дочка Даша вышла замуж и переехала в Москву, Люда осталась одна. Все свое внимание она сосредоточила на работе. Сотрудники транспортного предприятия знали, что к Люде всегда можно обратиться за помощью и советом. Она никому не откажет. И разумеется, не могла Люда отказать собственной дочери, когда та поведала о своих проблемах.
Чтобы поддержать Дашу, которая решила выйти на работу, Люда сдает дом в аренду, увольняется со своей работы и мчится в Москву. Дочь рада, что с внуком Петей теперь будет сидеть бабушка. Не рад этому только муж Даши – Тимофей. Возможно, оттого, что Люда догадывается о его изменах. Она сама когда-то, будучи в браке, пережила подобное. Тимофей, опасаясь быть разоблаченным, настраивает Дашу против матери, и та выгоняет ее.

Качество: SATRip
Формат: AVI
Видео кодек: XviD
Аудио кодек: MP3
Видео: 720x400 (1.80:1), 25 fps, XviD build 50 ~1800 kbps
Аудио#1: 48 kHz, MPEG Layer 3, 2 ch, ~128.00 kbps
скриншот   скриншот   скриншот   скриншот  

General
Complete name : H:\релизы.торрентфайл\Hochu.byt.schastlivoj.SATRip.[www.riperam.org]\Hochu.byt.schastlivoj.01.SATRip.[www.riperam.org].avi
Format : AVI
Format/Info : Audio Video Interleave
File size : 598 MiB
Duration : 43mn 8s
Overall bit rate : 1 938 Kbps
Writing application : VirtualDubMod 1.5.10.3 | www.virtualdub-fr.org || (build 2550/release)
Writing library : VirtualDubMod build 2550/release

Video
ID : 0
Format : MPEG-4 Visual
Format profile : Advanced Simple@L5
Format settings, BVOP : 2
Format settings, QPel : No
Format settings, GMC : No warppoints
Format settings, Matrix : Default (H.263)
Codec ID : XVID
Codec ID/Hint : XviD
Duration : 43mn 8s
Bit rate : 1 800 Kbps
Width : 720 pixels
Height : 400 pixels
Display aspect ratio : 16:9
Frame rate : 25.000 fps
Color space : YUV
Chroma subsampling : 4:2:0
Bit depth : 8 bits
Scan type : Progressive
Compression mode : Lossy
Bits/(Pixel*Frame) : 0.250
Stream size : 555 MiB (93%)
Writing library : XviD 1.2.1 (UTC 2008-12-04)

Audio
ID : 1
Format : MPEG Audio
Format version : Version 1
Format profile : Layer 3
Mode : Joint stereo
Mode extension : MS Stereo
Codec ID : 55
Codec ID/Hint : MP3
Duration : 43mn 8s
Bit rate mode : Constant
Bit rate : 128 Kbps
Channel(s) : 2 channels
Sampling rate : 48.0 KHz
Compression mode : Lossy
Stream size : 39.5 MiB (7%)
Alignment : Aligned on interleaves
Interleave, duration : 40 ms (1.00 video frame)
Interleave, preload duration : 504 ms
Writing library : LAME3.99r
Encoding settings : -m j -V 4 -q 9 -lowpass 17 -b 128

pb.wtf



Скачать Хочу быть счастливой через торрент http://pic1.kartinco.top/images/11/yebot.jpg Скачать фильм Хочу быть счастливой через торрент бесплантно в хорошем качестве Описание: Людмиле почти 50. Она всегда мечтала о большой семье, но так случилось, что муж ушел от нее к другой женщине, дочка Даша вышла ... 10 10 4
Торрент: Зарегистрирован [2017-09-17 03:17] · скачан: 93 раз
Статус: √ проверено
Размер: 2.14 GB
Как cкачать? Как скачать Хочу быть счастливой через торрент | qTorrent

28-11-2019 20:33  

Отключить всю рекламу на сайте

    Дорогой пользователь! Огромная просьба, поблагодарите релизера, оцените раздачу и оставьте свои комментарий, если Вы скачали Хочу быть счастливой через торрент бесплатно! Внесите свою лепту в развитие PiratBit!
    Комментировать посты могут только пользователи прошедшие не сложную регистрацию
    Показать сообщения:    

    Хочу быть счастливой через торрент
    Скачать бесплатно Хочу быть счастливой
    Хочу быть счастливой скачать торрент
    Хочу быть счастливой смотреть онлайн
    Cкачать фильм Хочу быть счастливой бесплатно
    Хочу быть счастливой скачать торрент в хорошем качестве
    Хочу быть счастливой смотреть онлайн бесплатно в хорошем качестве


    Вы не можете начинать темы
    Вы не можете отвечать на сообщения
    Вы не можете редактировать свои сообщения
    Вы не можете удалять свои сообщения
    Вы не можете голосовать в опросах
    Вы не можете прикреплять файлы к сообщениям
    Вы можете скачивать файлы