Достать ножи: Стеклянная луковица

MVO

Добыча

Дубляж

Уэнсдэй

1 сезон

Тор

Дубляж

13 клиническая

1 сезон

Жестокая ночь

MVO

Одни из нас

1 сезон

Deluxe

pack

Рекомендуем

30

Пиратка

ВАЖНО

ВАЖНО

Ghostwire

Пиратка

jed

RePack

nioh2

RePack

RDR2

RePack

NEED FOR SPEED™ PAYBACK

RePack

скачать торрент

Кинопоиск HD

Острые козырьки 6 сезон

6 сезон

FAR CRY 6

RePack

скачать торрент

Лицензия

скачать торрент

MVO

1

1 сезон

скачать торрент

1 сезон

скачать торрент

Лицензия

  

Дожди (Сергей Казаков) [1958, СССР, драма, SATRip от AVP Studio]

Дожди через торрент pb.wtf

Размер: 745 MB | Добавлен: 5 лет 4 мес. назад | Торрент скачан:19 раз
Смотреть онлайн | Скачать | Поддержите нас   

17-09-2017 07:49 Дожди Скачать торрент  

Дожди
Страна: СССР
Производство: Мосфильм

Жанр: драма
Год выпуска: 1958
Продолжительность: 00:51:12

Перевод: Не требуется
Cубтитры: нет
Оригинальная аудиодорожка: русский

Режиссер: Сергей Казаков

В ролях:
Лидия Сухаревская, Виктор Кольцов (Кутаков), Михаил Кузнецов, Михаил Глузский, Елена Максимова, Ольга Дзисько, Михаил Трояновский, Борис Сазонов, Мария Попова-Кайсарова...
Об актёрах подробней

Описание:
Телефильм по одноименному рассказу Сергея Антонова.
На строительстве небольшого моста срывается план работ — вот уже две недели идут проливные дожди, не хватает песка и гравия. Начальник строительства и Валентина Георгиевна (Лидия Сухаревская) , его преданная секретарша, тоскуют по хорошей погоде и ждут перемен. И перемены действительно наступают. Ивана Семеновича снимают с работы и вместо него присылают нового — энергичного, грубоватого начальника со смешной фамилией — Непейвода (Михаил Кузнецов). Обстановка на строительстве резко меняется: новый начальник сумел расставить людей, заразить всех своей кипучей энергией, и строители живо откликнулись проявлением своей инициативы. Теперь уже дожди не мешают выполнению плана...

Источник: DVB
Качество видео: SATRip
Формат видео: AVI

Видео: 704x528 (4:3), 25 fps, XviD ~ 1834 kbps avg, 0.197 bit/pixel
Аудио: 48 kHz, Dolby Digital AC3 2.0, 192 kbps

Раздача от:
Общее
Полное имя : Dozhdi.1958.SATRip_[New-team]_by_AVP_Studio.avi
Формат : AVI
Формат/Информация : Audio Video Interleave
Размер файла : 745 Мбайт
Продолжительность : 51 м. 11 с.
Общий поток : 2035 Кбит/сек
Программа кодирования : VirtualDubMod 1.5.10.3 | www.virtualdub-fr.org || (build 2550/release)
Библиотека кодирования : VirtualDubMod build 2550/release

Видео
Идентификатор : 0
Формат : MPEG-4 Visual
Профиль формата : Advanced [email protected]
Параметр BVOP формата : 1
Параметр QPel формата : Нет
Параметр GMC формата : Без точки перехода
Параметр матрицы формата : Выборочная
Идентификатор кодека : XVID
Идентификатор кодека/Подсказка : XviD
Продолжительность : 51 м. 11 с.
Битрейт : 1834 Кбит/сек
Ширина : 704 пикселя
Высота : 528 пикселей
Соотношение сторон : 4:3
Частота кадров : 25,000 кадров/сек
Цветовое пространство : YUV
Субдискретизация насыщенности : 4:2:0
Битовая глубина : 8 бит
Тип развёртки : Прогрессивная
Метод сжатия : С потерями
Бит/(Пиксели*Кадры) : 0.197
Размер потока : 671 Мбайт (90%)
Библиотека кодирования : XviD 73

Аудио
Идентификатор : 1
Формат : AC-3
Формат/Информация : Audio Coding 3
Параметр Endianness формата : Big
Идентификатор кодека : 2000
Продолжительность : 51 м. 11 с.
Вид битрейта : Постоянный
Битрейт : 192 Кбит/сек
Каналы : 2 канала
Расположение каналов : Front: L R
Частота : 48,0 КГц
Частота кадров : 31,250 кадров/сек (1536 SPF)
Битовая глубина : 16 бит
Метод сжатия : С потерями
Размер потока : 70,3 Мбайт (9%)
Выравнивание : Разделение по промежуткам
Продолжительность промежутка : 40 мс. (1,00 видеокадр)
Время предзагрузки промежутка : 500 мс



Скачать Дожди через торрент http://s019.radikal.ru/i612/1709/81/b803494196a5.png Скачать, смотреть онлайн Дожди бесплантно в хорошем качестве Описание:Телефильм по одноименному рассказу Сергея Антонова.На строительстве небольшого моста срывается план работ — вот уже две недели ... 5 10 1
Info! Золотая раздача, скачанное не засчитывается.
Торрент: Зарегистрирован [2017-09-17 07:49] · скачан: 19 раз
Статус: √ проверено
Размер: 745 MB
Как cкачать? Как скачать Дожди через торрент | UTorrent

% Раздел Тема Автор DL S | L
Кино СССР [ 745 MB ] Дожди | | SATRip-AVC от AVP Studio AVP Studio Скачать
1 | 0

28-11-2019 20:33  


Отключить вcю реклaмy на сайте, в т.ч. и в плеере онлайн просмотра!

    Дорогой пользователь! Огромная просьба, поблагодарите релизера, оцените раздачу и оставьте свои комментарий, если Вы скачали Дожди через торрент бесплатно!!
    Комментировать посты могут только пользователи прошедшие не сложную регистрацию
    Показать сообщения:    


    Дожди через торрент
    Скачать бесплатно Дожди
    Дожди скачать торрент
    Дожди смотреть онлайн
    Cкачать фильм Дожди бесплатно
    Дожди скачать торрент в хорошем качестве
    Дожди смотреть онлайн бесплатно в хорошем качестве
    Вы не можете начинать темы
    Вы не можете отвечать на сообщения
    Вы не можете редактировать свои сообщения
    Вы не можете удалять свои сообщения
    Вы не можете голосовать в опросах
    Вы не можете прикреплять файлы к сообщениям
    Вы можете скачивать файлы
    Дожди [1958, СССР, драма, SATRip от AVP Studio] смотреть онлайн, скачать торрент picoco.icu