Ссылка на приватное зеркало нашего сайта всего за 1$. Внимание количество ограничено!!!

2 сезон

iTunes

1 сезон

1

iTunes

iTunes

iTunes

1 сезон

RePack

30

ИГРА 18+

pack

ВАЖНО

!!Акция!!

Alien_RageХит недели

RePack

MK11
pack

Забери бонус

RePack

jed

!!Акция!!

Alien_Rage

RePack

fifa19

RePack

Assassins Creed: Odyssey

RePack

NEED FOR SPEED™ PAYBACK

4 сезон

9 сезон

Бесстыжие 9 сезон

Все сериалы

все сериалы на PB.wtf

RePack

FAR CRY 5
  

Ад / L' Enfer (Клод Шаброль) [1994, драма, криминал, BDRip 720p by msltel] MVO pb.wtf

Ад через торрент pb.wtf

Размер: 4.71 GB | Добавлен: 3 года 1 мес. назад | Торрент скачан:18 раз
Скачать  

17-09-2017 09:59 Ад Скачать торрент  

Название: Ад
Оригинальное название: L' Enfer
Год выпуска: 1994
Страна: Франция
Жанр: драма, криминал
Продолжительность: 01:42:27
Перевод: профессиональный многоголосый

Режиссер: Клод Шаброль
В ролях: Эммануэль Беар, Франсуа Клюзе, Натали Кардон, Андре Вильм, Марк Лавуан, Кристиана Миназзоли, Дора Долл, Марио Давид, Жан-Пьер Кассель, Тома Шаброль

О фильме: Поль, раздражительный и склонный к истерикам владелец отеля, становится настоящим параноиком, подозревая в неверности свою любимую жену. Дьявольская ревность превращает жизнь Поля в настоящий ад. Жизнь ревнивца начинает разваливаться, его сумасшествие углубляется с каждым днём, стирая все черты прежней личности…



Качество: BDRip 720p
Формат: MKV
Видео: MPEG-4 AVC, 6199 Кбит/с, 1200x720, 23.976 кадр/с
Аудио 1: русский, AC3, 192 kbps, 2 ch [профессиональный многоголосый, R5]
Аудио 2: французский, AC3, 192 kbps, 2 ch, 48 kHz [оригинал]
Субтитры 1: русские
Субтитры 2: английские
Имеются неименованные главы/чаптеры.
Общее
Уникальный идентификатор : 246960318475211347637688582821118075928 (0xB9CAD3C62D281EBD92641F6364E1E418)
Полное имя : D:\Video\Ад.1994.BDRip.720p by msltel.mkv
Формат : Matroska
Версия формата : Version 4 / Version 2
Размер файла : 4,71 Гбайт
Продолжительность : 1 ч. 42 м.
Общий поток : 6585 Кбит/сек
Название фильма : Rip by msltel
Дата кодирования : UTC 2017-09-15 10:51:05
Программа кодирования : mkvmerge v8.2.0 ('World of Adventure') 64bit
Библиотека кодирования : libebml v1.3.1 + libmatroska v1.4.2

Видео
Идентификатор : 1
Формат : AVC
Формат/Информация : Advanced Video Codec
Профиль формата : High@L4.1
Параметр CABAC формата : Да
Параметр RefFrames формата : 9 кадров
Идентификатор кодека : V_MPEG4/ISO/AVC
Продолжительность : 1 ч. 42 м.
Битрейт : 6199 Кбит/сек
Ширина : 1200 пикселей
Высота : 720 пикселей
Соотношение сторон : 5:3
Режим частоты кадров : Постоянный
Частота кадров : 23,976 (24000/1001) кадра/сек
Цветовое пространство : YUV
Субдискретизация насыщенности : 4:2:0
Битовая глубина : 8 бит
Тип развёртки : Прогрессивная
Бит/(Пиксели*Кадры) : 0.299
Размер потока : 4,44 Гбайт (94%)
Библиотека кодирования : x264 core 146 r2538 121396c
Настройки программы : cabac=1 / ref=9 / deblock=1:-3:-2 / analyse=0x3:0x113 / me=umh / subme=11 / psy=1 / psy_rd=1.00:0.15 / mixed_ref=1 / me_range=32 / chroma_me=1 / trellis=2 / 8x8dct=1 / cqm=0 / deadzone=21,11 / fast_pskip=0 / chroma_qp_offset=-3 / threads=6 / lookahead_threads=1 / sliced_threads=0 / nr=0 / decimate=1 / interlaced=0 / bluray_compat=0 / constrained_intra=0 / bframes=13 / b_pyramid=2 / b_adapt=2 / b_bias=0 / direct=1 / weightb=1 / open_gop=0 / weightp=2 / keyint=230 / keyint_min=23 / scenecut=40 / intra_refresh=0 / rc_lookahead=40 / rc=crf / mbtree=0 / crf=22.0 / qcomp=0.60 / qpmin=0 / qpmax=69 / qpstep=4 / vbv_maxrate=62500 / vbv_bufsize=78125 / crf_max=0.0 / nal_hrd=none / filler=0 / ip_ratio=1.40 / pb_ratio=1.30 / aq=1:1.00
Язык : French
Default : Да
Forced : Нет

Аудио #1
Идентификатор : 2
Формат : AC-3
Формат/Информация : Audio Coding 3
Параметр Endianness формата : Big
Идентификатор кодека : A_AC3
Продолжительность : 1 ч. 42 м.
Вид битрейта : Постоянный
Битрейт : 192 Кбит/сек
Каналы : 2 канала
Расположение каналов : Front: L R
Частота : 48,0 КГц
Частота кадров : 31,250 кадров/сек (1536 SPF)
Битовая глубина : 16 бит
Метод сжатия : С потерями
Размер потока : 141 Мбайт (3%)
Заголовок : MVO.R5
Язык : Russian
ServiceKind/String : Complete Main
Default : Да
Forced : Нет

Аудио #2
Идентификатор : 3
Формат : AC-3
Формат/Информация : Audio Coding 3
Параметр Endianness формата : Big
Идентификатор кодека : A_AC3
Продолжительность : 1 ч. 42 м.
Вид битрейта : Постоянный
Битрейт : 192 Кбит/сек
Каналы : 2 канала
Расположение каналов : Front: L R
Частота : 48,0 КГц
Частота кадров : 31,250 кадров/сек (1536 SPF)
Битовая глубина : 16 бит
Метод сжатия : С потерями
Размер потока : 141 Мбайт (3%)
Заголовок : original
Язык : French
ServiceKind/String : Complete Main
Default : Нет
Forced : Нет

Текст #1
Идентификатор : 4
Формат : UTF-8
Идентификатор кодека : S_TEXT/UTF8
Идентификатор кодека/Информация : UTF-8 Plain Text
Продолжительность : 1 ч. 38 м.
Битрейт : 50 бит/сек
ElementCount : 975
Размер потока : 36,3 Кбайт (0%)
Заголовок : русские
Язык : Russian
Default : Нет
Forced : Нет

Текст #2
Идентификатор : 5
Формат : UTF-8
Идентификатор кодека : S_TEXT/UTF8
Идентификатор кодека/Информация : UTF-8 Plain Text
Продолжительность : 1 ч. 41 м.
Битрейт : 34 бит/сек
ElementCount : 1045
Размер потока : 25,5 Кбайт (0%)
Заголовок : английские
Язык : English
Default : Нет
Forced : Нет

Меню
00:00:00.000 : :Chapter 01
00:09:15.972 : :Chapter 02
00:19:55.234 : :Chapter 03
00:30:48.680 : :Chapter 04
00:43:54.840 : :Chapter 05
00:49:09.821 : :Chapter 06
01:02:24.573 : :Chapter 07
01:14:28.796 : :Chapter 08
01:25:21.741 : :Chapter 09
01:33:08.624 : :Chapter 10
01:42:25.597 : :Chapter 11
pb.wtf



Скачать Ад через торрент http://s48.radikal.ru/i122/1709/5a/f16e8c01a653.jpg Скачать фильм Ад через торрент бесплантно в хорошем качестве О фильме: Поль, раздражительный и склонный к истерикам владелец отеля, становится настоящим параноиком, подозревая в неверности свою ... 10 10 2
Info! Золотая раздача, скачанное не засчитывается.
Торрент: Зарегистрирован [2017-09-17 09:59] · скачан: 18 раз
Статус: √ проверено
Размер: 4.71 GB
Как cкачать? Как скачать Ад через торрент | qTorrent

28-11-2019 20:33  

Отключить всю рекламу на сайте

    Дорогой пользователь! Огромная просьба, поблагодарите релизера, оцените раздачу и оставьте свои комментарий, если Вы скачали Ад через торрент бесплатно! Внесите свою лепту в развитие PiratBit!
    Комментировать посты могут только пользователи прошедшие не сложную регистрацию
    Показать сообщения:    

    Ад через торрент
    Скачать бесплатно Ад
    Ад скачать торрент
    Ад смотреть онлайн
    Cкачать фильм Ад бесплатно
    Ад скачать торрент в хорошем качестве
    Ад смотреть онлайн бесплатно в хорошем качестве


    Вы не можете начинать темы
    Вы не можете отвечать на сообщения
    Вы не можете редактировать свои сообщения
    Вы не можете удалять свои сообщения
    Вы не можете голосовать в опросах
    Вы не можете прикреплять файлы к сообщениям
    Вы можете скачивать файлы