новый адрес
Ссылка на приватное зеркало всего за 1$. Внимание количество ограничено!!!

iTunes

1+1

iTunes

мы

WEB-DL

1

iTunes

Чернобыль

iTunes

Ральф против интернета

Лицензия

ПШазам

Лицензия

Оно 2

Лицензия

30
pack

Вам бонус

ВАЖНО

!!Акция!!

Alien_RageХит недели

RePack

Resident Evil 21

ИГРА 18+

pack

RePack

jed

!!Акция!!

Alien_Rage

RePack

fifa19

RePack

Assassins Creed: Odyssey

RePack

NEED FOR SPEED™ PAYBACK

3 сезон

9 сезон

Бесстыжие 9 сезон

Все сериалы

все сериалы на PB.wtf

RePack

FAR CRY 5
Ребята, катастрофически не хватает 1900р. для оплаты серверов за Октябрь (всвязи с блокировками трафик упал в 3 раза), 1-2р., выручайте.
  

Первый парень (Сергей Параджанов) [1958, СССР, комедия, SATRip от AVP Studio] pb.wtf

Первый парень через торрент pb.wtf

Размер: 1.09 GB | Добавлен: 2 года 2 мес. назад | Торрент скачан:20 раз
Скачать  

18-09-2017 08:47 Первый парень Скачать торрент  

Первый парень
Страна: СССР
Производство: К/ст им. Довженко

Жанр: комедия
Год выпуска: 1958
Продолжительность: 01:20:29

Перевод: Не требуется
Cубтитры: нет
Оригинальная аудиодорожка: русский

Режиссер: Сергей Параджанов

В ролях:
Григорий Карпов, Людмила Сосюра, Юрий Сатаров, Валерия Коваленко, Андрей Андриенко-Земсков, Николай Шутько, Тамара Алексеева, Людмила Орлова (II), Михаил Крамар, Ярослав Сасько, Николай Яковченко, Юрий Цупко, Варвара Чайка, Иван Матвеев...
Об актёрах подробней

Описание:
Сержант Данила, демобилизовавшись из армии, вернулся в свое село и, насмотревшись на скучающую молодежь, организовал строительство стадиона. Все парни стали активно заниматься спортом — гимнастикой, плаванием, футболом. И даже беспутный Юшка, который ранее развлекал ребят дикими шутками, за что и был прозван «первым парнем» и за что злилась на него любимая девушка Одарка Кучерявая, решил стать первым футболистом — и это у него, в конце концов, получилось.

Источник: DVB
Качество видео: SATRip
Формат видео: AVI

Видео: 704x528 (4:3), 25 fps, XviD ~ 1737 kbps avg, 0.187 bit/pixel
Аудио: 48 kHz, Dolby Digital AC3 2.0, 192 kbps

Раздача от:
Общее
Полное имя : Pervyy.paren.1958.SATRip_[New-team]_by_AVP_Studio.avi
Формат : AVI
Формат/Информация : Audio Video Interleave
Размер файла : 1,09 Гбайт
Продолжительность : 1 ч. 20 м.
Общий поток : 1939 Кбит/сек
Программа кодирования : VirtualDubMod 1.5.10.3 | www.virtualdub-fr.org || (build 2550/release)
Библиотека кодирования : VirtualDubMod build 2550/release

Видео
Идентификатор : 0
Формат : MPEG-4 Visual
Профиль формата : Advanced Simple@L5
Параметр BVOP формата : 1
Параметр QPel формата : Нет
Параметр GMC формата : Без точки перехода
Параметр матрицы формата : Выборочная
Идентификатор кодека : XVID
Идентификатор кодека/Подсказка : XviD
Продолжительность : 1 ч. 20 м.
Битрейт : 1737 Кбит/сек
Ширина : 704 пикселя
Высота : 528 пикселей
Соотношение сторон : 4:3
Частота кадров : 25,000 кадров/сек
Цветовое пространство : YUV
Субдискретизация насыщенности : 4:2:0
Битовая глубина : 8 бит
Тип развёртки : Прогрессивная
Метод сжатия : С потерями
Бит/(Пиксели*Кадры) : 0.187
Размер потока : 1000 Мбайт (90%)
Библиотека кодирования : XviD 73

Аудио
Идентификатор : 1
Формат : AC-3
Формат/Информация : Audio Coding 3
Параметр Endianness формата : Big
Идентификатор кодека : 2000
Продолжительность : 1 ч. 20 м.
Вид битрейта : Постоянный
Битрейт : 192 Кбит/сек
Каналы : 2 канала
Расположение каналов : Front: L R
Частота : 48,0 КГц
Частота кадров : 31,250 кадров/сек (1536 SPF)
Битовая глубина : 16 бит
Метод сжатия : С потерями
Размер потока : 111 Мбайт (10%)
Выравнивание : Разделение по промежуткам
Продолжительность промежутка : 40 мс. (1,00 видеокадр)
Время предзагрузки промежутка : 500 мс
pb.wtf



Скачать Первый парень через торрент http://s48.radikal.ru/i122/1709/97/4f222b03fb7f.png Скачать фильм Первый парень через торрент бесплантно в хорошем качестве Описание:Сержант Данила, демобилизовавшись из армии, вернулся в свое село и, насмотревшись на скучающую молодежь, организовал строительство ... 10 10 1
Info! Золотая раздача, скачанное не засчитывается.
Торрент: Зарегистрирован [2017-09-18 08:47] · скачан: 20 раз
Статус: √ проверено
Размер: 1.09 GB
Как cкачать? Как скачать Первый парень через торрент | qTorrent

% Раздел Тема Автор DL S | L
Наши сериалы [ 10.31 GB ] Первый парень на деревне / Серия 1-4 из 4 [2017 HDTV 1080p] [Русский] R.G.Generalfilm White Smoke Скачать
1 | 0
Наши сериалы [ 3.18 GB ] Первый парень на деревне / Серии: 1-4 из 4 [2018 WEB-DLRip-AVC] bober100 Скачать
1 | 0
Наши сериалы [ 2.55 GB ] Первый парень на деревне / Серии: 1-4 из 4 [2018 WEB-DLRip] bober100 Скачать
1 | 0
Наши сериалы [ 8.99 GB ] Первый парень на деревне / Серии: 1-4 из 4 [2018 WEB-DL 1080p] bober100 Скачать
1 | 0
Наши сериалы [ 2.78 GB ] Первый парень на деревне /Серия 1-4 из 4/ [2017 SATRip] oleg8 Скачать
1 | 0
Кино СССР [ 1.09 GB ] Первый парень [1958 СССР SATRip-AVC от AVP Studio] AVP Studio Скачать
1 | 0
Кино СССР [ 745 MB ] Первый парень [1958 СССР SATRip от AVP Studio] AVP Studio Скачать
1 | 0

28-11-2019 20:33  

Отключить всю рекламу на сайте

    Дорогой пользователь! Огромная просьба, поблагодарите релизера, оцените раздачу и оставьте свои комментарий, если Вы скачали Первый парень через торрент бесплатно! Внесите свою лепту в развитие PiratBit!
    Комментировать посты могут только пользователи прошедшие не сложную регистрацию
    Показать сообщения:    

    Первый парень через торрент
    Скачать бесплатно Первый парень
    Первый парень скачать торрент
    Первый парень смотреть онлайн
    Cкачать фильм Первый парень бесплатно
    Первый парень скачать торрент в хорошем качестве
    Первый парень смотреть онлайн бесплатно в хорошем качестве


    Вы не можете начинать темы
    Вы не можете отвечать на сообщения
    Вы не можете редактировать свои сообщения
    Вы не можете удалять свои сообщения
    Вы не можете голосовать в опросах
    Вы не можете прикреплять файлы к сообщениям
    Вы можете скачивать файлы