Ссылка на приватное зеркало нашего сайта всего за 1$. Внимание количество ограничено!!!

2 сезон

iTunes

1 сезон

1

iTunes

iTunes

iTunes

1 сезон

RePack

30

ИГРА 18+

pack

ВАЖНО

!!Акция!!

Alien_RageХит недели

RePack

MK11
pack

Забери бонус

RePack

jed

!!Акция!!

Alien_Rage

RePack

fifa19

RePack

Assassins Creed: Odyssey

RePack

NEED FOR SPEED™ PAYBACK

4 сезон

9 сезон

Бесстыжие 9 сезон

Все сериалы

все сериалы на PB.wtf

RePack

FAR CRY 5
  

За шкуру полицейского / Pour la peau d'un flic (Ален Делон) [1981, боевик, триллер, мелодрама, криминал, BDRip 720p by msltel] 5 x MVO, AVO pb.wtf

За шкуру полицейского через торрент pb.wtf

Размер: 5.25 GB | Добавлен: 3 года 1 мес. назад | Торрент скачан:24 раза
Скачать  

18-09-2017 08:56 За шкуру полицейского Скачать торрент  

Название: За шкуру полицейского
Оригинальное название: Pour la peau d'un flic
Год выпуска: 1981
Страна: Франция
Жанр: боевик, триллер, мелодрама, криминал
Продолжительность: 01:46:24
Перевод: профессиональный многоголосый, авторский

Режиссер: Ален Делон
В ролях: Ален Делон, Анн Парийо, Даниэль Секкальди, Жан-Пьер Даррас, Ксавье Депраз, Жак Риспаль, Жерар Эрольд, Пьер Бело, Анник Алан, Паскаль Робер, Жан Барне, Этьен Шико, Уилли Холт, Мишель Оклер, Мишель Беррёр, Филипп Кастелли, Макс Деро, Мари Марчак, Жак Писиас, Даниэль Рокка, Ариель Семенофф, Брижит Лаэ, Паскаль Виталь, Доминик Зарди, Анри Атталь, Мирей Дарк, Клер Надо

О фильме: Быть хорошим частным детективом значит иметь кучу врагов, и когда он случайно копнёт там, где это кому-то сильно не выгодно, надо быть начеку... В поисках пропавшей слепой девушки герой фильма Шукас и не думал, что столкнётся с серьёзным сопротивлением своих бывших коллег… Так сколько же стоит шкура бывшего полицейского и куда подевалась девушка?... Фильм снят по роману Жана-Патрика Маншетта «Сколько костей!».



Качество: BDRip 720p
Формат: MKV
Видео: MPEG-4 AVC, 5716 Кбит/с, 1210х720
Аудио 1: русский, AC3, 192 kbps, 2 ch, 48 kHz [профессиональный многоголосый, Спб 5 канал]
Аудио 2: русский, AC3, 192 kbps, 2 ch, 48 kHz [профессиональный многоголосый, HTB]
Аудио 3: русский, AC3, 192 kbps, 2 ch, 48 kHz [профессиональный многоголосый, OPT]
Аудио 4: русский, AC3, 192 kbps, 2 ch, 48 kHz [профессиональный многоголосый, CP Digital]
Аудио 5: русский, AC3, 192 kbps, 2 ch, 48 kHz [профессиональный многоголосый, Домашний]
Аудио 6: русский, AC3, 192 kbps, 2 ch, 48 kHz [авторский, Андрей Гаврилов]
Аудио 7: французский, AC3, 448 kbps, 2 ch, 48 kHz [оригинал]
Субтитры: русские
Имеются неименованные главы/чаптеры.
Общее
Уникальный идентификатор : 203840591688313075668700101884967902353 (0x995A451AE166696191B635389AE7DC91)
Полное имя : D:\Video\За шкуру полицейского.1981.BDRip.720p by msltel.mkv
Формат : Matroska
Версия формата : Version 4 / Version 2
Размер файла : 5,25 Гбайт
Продолжительность : 1 ч. 46 м.
Общий поток : 7063 Кбит/сек
Название фильма : Rip by msltel
Дата кодирования : UTC 2017-09-18 08:21:18
Программа кодирования : mkvmerge v8.2.0 ('World of Adventure') 64bit
Библиотека кодирования : libebml v1.3.1 + libmatroska v1.4.2

Видео
Идентификатор : 1
Формат : AVC
Формат/Информация : Advanced Video Codec
Профиль формата : High@L4.1
Параметр CABAC формата : Да
Параметр RefFrames формата : 9 кадров
Идентификатор кодека : V_MPEG4/ISO/AVC
Продолжительность : 1 ч. 46 м.
Битрейт : 5716 Кбит/сек
Ширина : 1210 пикселей
Высота : 720 пикселей
Соотношение сторон : 5:3
Режим частоты кадров : Постоянный
Частота кадров : 24,000 кадра/сек
Цветовое пространство : YUV
Субдискретизация насыщенности : 4:2:0
Битовая глубина : 8 бит
Тип развёртки : Прогрессивная
Бит/(Пиксели*Кадры) : 0.273
Размер потока : 4,25 Гбайт (81%)
Библиотека кодирования : x264 core 146 r2538 121396c
Настройки программы : cabac=1 / ref=9 / deblock=1:-3:-2 / analyse=0x3:0x113 / me=umh / subme=11 / psy=1 / psy_rd=1.00:0.15 / mixed_ref=1 / me_range=32 / chroma_me=1 / trellis=2 / 8x8dct=1 / cqm=0 / deadzone=21,11 / fast_pskip=0 / chroma_qp_offset=-3 / threads=6 / lookahead_threads=1 / sliced_threads=0 / nr=0 / decimate=1 / interlaced=0 / bluray_compat=0 / constrained_intra=0 / bframes=7 / b_pyramid=2 / b_adapt=2 / b_bias=0 / direct=1 / weightb=1 / open_gop=0 / weightp=2 / keyint=230 / keyint_min=23 / scenecut=40 / intra_refresh=0 / rc_lookahead=40 / rc=crf / mbtree=0 / crf=18.6 / qcomp=0.60 / qpmin=0 / qpmax=69 / qpstep=4 / vbv_maxrate=62500 / vbv_bufsize=78125 / crf_max=0.0 / nal_hrd=none / filler=0 / ip_ratio=1.40 / pb_ratio=1.30 / aq=1:1.00
Язык : French
Default : Да
Forced : Нет

Аудио #1
Идентификатор : 2
Формат : AC-3
Формат/Информация : Audio Coding 3
Режим : Dolby Digital
Параметр Endianness формата : Big
Идентификатор кодека : A_AC3
Продолжительность : 1 ч. 46 м.
Вид битрейта : Постоянный
Битрейт : 192 Кбит/сек
Каналы : 2 канала
Расположение каналов : Front: L R
Частота : 48,0 КГц
Частота кадров : 31,250 кадров/сек (1536 SPF)
Битовая глубина : 16 бит
Метод сжатия : С потерями
Размер потока : 146 Мбайт (3%)
Заголовок : MVO. Спб 5 канал
Язык : Russian
ServiceKind/String : Complete Main
Default : Да
Forced : Нет

Аудио #2
Идентификатор : 3
Формат : AC-3
Формат/Информация : Audio Coding 3
Режим : Dolby Digital
Параметр Endianness формата : Big
Идентификатор кодека : A_AC3
Продолжительность : 1 ч. 46 м.
Вид битрейта : Постоянный
Битрейт : 192 Кбит/сек
Каналы : 2 канала
Расположение каналов : Front: L R
Частота : 48,0 КГц
Частота кадров : 31,250 кадров/сек (1536 SPF)
Битовая глубина : 16 бит
Метод сжатия : С потерями
Размер потока : 146 Мбайт (3%)
Заголовок : MVO.HTB
Язык : Russian
ServiceKind/String : Complete Main
Default : Нет
Forced : Нет

Аудио #3
Идентификатор : 4
Формат : AC-3
Формат/Информация : Audio Coding 3
Режим : Dolby Digital
Параметр Endianness формата : Big
Идентификатор кодека : A_AC3
Продолжительность : 1 ч. 46 м.
Вид битрейта : Постоянный
Битрейт : 192 Кбит/сек
Каналы : 2 канала
Расположение каналов : Front: L R
Частота : 48,0 КГц
Частота кадров : 31,250 кадров/сек (1536 SPF)
Битовая глубина : 16 бит
Метод сжатия : С потерями
Размер потока : 146 Мбайт (3%)
Заголовок : MVO.OPT
Язык : Russian
ServiceKind/String : Complete Main
Default : Нет
Forced : Нет

Аудио #4
Идентификатор : 5
Формат : AC-3
Формат/Информация : Audio Coding 3
Параметр Endianness формата : Big
Идентификатор кодека : A_AC3
Продолжительность : 1 ч. 46 м.
Вид битрейта : Постоянный
Битрейт : 192 Кбит/сек
Каналы : 2 канала
Расположение каналов : Front: L R
Частота : 48,0 КГц
Частота кадров : 31,250 кадров/сек (1536 SPF)
Битовая глубина : 16 бит
Метод сжатия : С потерями
Размер потока : 146 Мбайт (3%)
Заголовок : MVO.CP Digital
Язык : Russian
ServiceKind/String : Complete Main
Default : Нет
Forced : Нет

Аудио #5
Идентификатор : 6
Формат : AC-3
Формат/Информация : Audio Coding 3
Параметр Endianness формата : Big
Идентификатор кодека : A_AC3
Продолжительность : 1 ч. 46 м.
Вид битрейта : Постоянный
Битрейт : 192 Кбит/сек
Каналы : 2 канала
Расположение каналов : Front: L R
Частота : 48,0 КГц
Частота кадров : 31,250 кадров/сек (1536 SPF)
Битовая глубина : 16 бит
Метод сжатия : С потерями
Размер потока : 146 Мбайт (3%)
Заголовок : MVO.Домашний
Язык : Russian
ServiceKind/String : Complete Main
Default : Нет
Forced : Нет

Аудио #6
Идентификатор : 7
Формат : AC-3
Формат/Информация : Audio Coding 3
Параметр Endianness формата : Big
Идентификатор кодека : A_AC3
Продолжительность : 1 ч. 46 м.
Вид битрейта : Постоянный
Битрейт : 192 Кбит/сек
Каналы : 2 канала
Расположение каналов : Front: L R
Частота : 48,0 КГц
Частота кадров : 31,250 кадров/сек (1536 SPF)
Битовая глубина : 16 бит
Метод сжатия : С потерями
Размер потока : 146 Мбайт (3%)
Заголовок : Андрей Гаврилов
Язык : Russian
ServiceKind/String : Complete Main
Default : Нет
Forced : Нет

Аудио #7
Идентификатор : 8
Формат : AC-3
Формат/Информация : Audio Coding 3
Параметр Endianness формата : Big
Идентификатор кодека : A_AC3
Продолжительность : 1 ч. 46 м.
Вид битрейта : Постоянный
Битрейт : 192 Кбит/сек
Каналы : 6 каналов
Расположение каналов : Front: L C R, Side: L R, LFE
Частота : 48,0 КГц
Частота кадров : 31,250 кадров/сек (1536 SPF)
Битовая глубина : 16 бит
Метод сжатия : С потерями
Размер потока : 146 Мбайт (3%)
Заголовок : original
Язык : French
ServiceKind/String : Complete Main
Default : Нет
Forced : Нет

Текст
Идентификатор : 9
Формат : UTF-8
Идентификатор кодека : S_TEXT/UTF8
Идентификатор кодека/Информация : UTF-8 Plain Text
Продолжительность : 1 ч. 44 м.
Битрейт : 85 бит/сек
ElementCount : 1073
Размер потока : 65,0 Кбайт (0%)
Заголовок : русские
Язык : Russian
Default : Нет
Forced : Нет

Меню
00:00:00.000 : :Chapter 01
00:04:04.291 : :Chapter 02
00:17:25.333 : :Chapter 03
00:24:59.250 : :Chapter 04
00:33:56.958 : :Chapter 05
00:42:43.833 : :Chapter 06
00:54:00.833 : :Chapter 07
01:01:25.125 : :Chapter 08
01:11:31.625 : :Chapter 09
01:23:03.833 : :Chapter 10
01:31:47.583 : :Chapter 11
01:42:27.833 : :Chapter 12
pb.wtf



Скачать За шкуру полицейского через торрент http://s019.radikal.ru/i602/1709/91/055db5847179.jpg Скачать фильм За шкуру полицейского через торрент бесплантно в хорошем качестве О фильме: Быть хорошим частным детективом значит иметь кучу врагов, и когда он случайно копнёт там, где это кому-то сильно не выгодно, надо ... 10 10 4
Info! Золотая раздача, скачанное не засчитывается.
Торрент: Зарегистрирован [2017-09-18 08:56] · скачан: 24 раз
Статус: √ проверено
Размер: 5.25 GB
Как cкачать? Как скачать За шкуру полицейского через торрент | qTorrent

28-11-2019 20:33  

Отключить всю рекламу на сайте

    Дорогой пользователь! Огромная просьба, поблагодарите релизера, оцените раздачу и оставьте свои комментарий, если Вы скачали За шкуру полицейского через торрент бесплатно! Внесите свою лепту в развитие PiratBit!
    Комментировать посты могут только пользователи прошедшие не сложную регистрацию
    Показать сообщения:    

    За шкуру полицейского через торрент
    Скачать бесплатно За шкуру полицейского
    За шкуру полицейского скачать торрент
    За шкуру полицейского смотреть онлайн
    Cкачать фильм За шкуру полицейского бесплатно
    За шкуру полицейского скачать торрент в хорошем качестве
    За шкуру полицейского смотреть онлайн бесплатно в хорошем качестве


    Вы не можете начинать темы
    Вы не можете отвечать на сообщения
    Вы не можете редактировать свои сообщения
    Вы не можете удалять свои сообщения
    Вы не можете голосовать в опросах
    Вы не можете прикреплять файлы к сообщениям
    Вы можете скачивать файлы