Ссылка на приватное зеркало нашего сайта всего за 1$. Внимание количество ограничено!!!

2 сезон

iTunes

1 сезон

1

2 сезон

2 сезон

iTunes

1 сезон

RePack

30

Ultimate

ВАЖНО

ИГРА 18+

pack

RePack

MK11
pack

Забери бонус

RePack

jed

!!Акция!!

Alien_Rage

RePack

fifa19

RePack

Assassins Creed: Odyssey

RePack

NEED FOR SPEED™ PAYBACK

4 сезон

9 сезон

Бесстыжие 9 сезон

Все сериалы

все сериалы на PB.wtf

RePack

FAR CRY 5
  

Талантливый мистер Рипли / The Talented Mr. Ripley (Энтони Мингелла) [1999, Триллер, детектив, драма, криминал, BD Remux 1080p] MVO+2xAVO+2xDUB (rus, ukr) pb.wtf

Талантливый мистер Рипли через торрент pb.wtf

Размер: 37.53 GB | Добавлен: 3 года 2 мес. назад | Торрент скачан:5 раз
Скачать  

18-09-2017 11:10 Талантливый мистер Рипли Скачать торрент  

Талантливый мистер Рипли / The Talented Mr. RipleyГод выпуска: 1999
Страна: США
Жанр: Триллер, детектив, драма, криминал, экранизация
Продолжительность: 02:19:07
Перевод: Дубляж, профессиональный многоголосый, авторский
Субтитры: Русские, английские

Режиссер: Энтони Мингелла

rating

В ролях:

Мэтт Дэймон, Гвинет Пэлтроу, Джуд Лоу, Кейт Бланшетт, Филип Сеймур Хоффман, Джек Девенпорт, Джеймс Ребхорн, Серджо Рубини, Филип Бэйкер Холл, Селия Уэстон

Описание:

По мотивам романа Патриции Хайсмит. Как-то раз молодой парень Том Рипли, который еще не успел добиться никаких успехов в своей жизни, попал на одну вечеринку для богатеев в Манхеттене. Там, при игре на фортепьяно он встречает некоего Герберта Гринлифа, который, увидев на Томе форменное пальто учебного заведения Принстона, где некогда учился его сын Дикки, решает, что Том знаком с Дикки. Том притворяется, что он действительно его знал. Тогда Герберт рассказывает Тому, что Дикки сбежал из дома, и вместе со своей невестой Марг Шервуд уехал в Европу, а именно - в Италию. Это обстоятельство очень волнует семейство Гринлифов, и поэтому Герберт делает Тому деловое предложение. В случае, если Том отправится в Италию, найдет там Дикки, и убедит его вернуться домой, он получит одну тысячу долларов. Естественно, Том не смог устоять перед таким предложением, и дал согласие.

Качество: BD Remux 1080p
Формат: MKV
Видео кодек: H.264
Аудио кодек: DTS

Видео: 25947 Кбит/с, 1920x1080, 23.976 кадр/с
Аудио#1: Русский Dolby Digital Audio 5.1 / 48 kHz / 384 kbps - DN -4dB - Дубляж
Аудио#2: Русский Dolby Digital Audio 2.0 / 48 kHz / 192 kbps - Профессиональный многоголосый (НТВ+)
Аудио#3: Русский DTS-HD MA Audio 5.1 / 48 kHz / 3972 kbps / 16-bit (DTS Core: 5.1 / 48 kHz / 1509 kbps / 16-bit) - Авторский (Визгунов)
Аудио#4: Русский DTS-HD MA Audio 5.1 / 48 kHz / 3982 kbps / 16-bit (DTS Core: 5.1 / 48 kHz / 1509 kbps / 16-bit) - Авторский (Cербин)

Аудио#5: Украинский Dolby Digital Audio 2.0 / 48 kHz / 192 kbps - (1+1)
Аудио#6: Английский DTS-HD Master Audio 5.1 / 48 kHz / 3947 kbps / 16-bit (DTS Core: 5.1 / 48 kHz / 1509 kbps / 16-bit) - Оригинал
скриншот   скриншот   скриншот   скриншот   скриншот  

Общее
Уникальный идентификатор : 242143523368150041678991811748232782997 (0xB62B25709A06B8F59579041649F16495)
Полное имя : D:\РЕМУКС!!!!!\Талантливый мистер Рипли.BDRemux..mkv
Формат : Matroska
Версия формата : Version 4 / Version 2
Размер файла : 37,5 Гбайт
Продолжительность : 2 ч. 19 м.
Режим общего битрейта : Переменный
Общий поток : 38,6 Мбит/сек
Название фильма : Талантливый мистер Рипли.BDRemux.thx:SPOMOPS.
Дата кодирования : UTC 2016-09-11 07:12:10
Программа кодирования : mkvmerge v6.1.0 ('Old Devil') built on Mar 4 2013 09:10:42
Библиотека кодирования : libebml v1.3.0 + libmatroska v1.4.0

Видео
Идентификатор : 1
Формат : AVC
Формат/Информация : Advanced Video Codec
Профиль формата : High@L4.1
Параметр CABAC формата : Да
Параметр ReFrames формата : 2 кадра
Параметр GOP формата : M=1, N=10
Идентификатор кодека : V_MPEG4/ISO/AVC
Продолжительность : 2 ч. 19 м.
Вид битрейта : Переменный
Ширина : 1920 пикселей
Высота : 1080 пикселей
Соотношение сторон : 16:9
Режим частоты кадров : Постоянный
Частота кадров : 23,976 кадра/сек
Цветовое пространство : YUV
Субдискретизация насыщенности : 4:2:0
Битовая глубина : 8 бит
Тип развёртки : Прогрессивная
Заголовок : 25947 kbps avg
Default : Да
Forced : Нет

Аудио #1
Идентификатор : 2
Формат : AC-3
Формат/Информация : Audio Coding 3
Расширение режима : CM (complete main)
Параметр Endianness формата : Big
Идентификатор кодека : A_AC3
Продолжительность : 2 ч. 19 м.
Вид битрейта : Постоянный
Битрейт : 384 Кбит/сек
Каналы : 6 каналов
Расположение каналов : Front: L C R, Side: L R, LFE
Частота : 48,0 КГц
Битовая глубина : 16 бит
Метод сжатия : С потерями
Размер потока : 382 Мбайт (1%)
Заголовок : Русский АСЗ 384 kbps - Дубляж
Язык : Russian
Default : Да
Forced : Нет

Аудио #2
Идентификатор : 3
Формат : AC-3
Формат/Информация : Audio Coding 3
Расширение режима : CM (complete main)
Параметр Endianness формата : Big
Идентификатор кодека : A_AC3
Продолжительность : 2 ч. 19 м.
Вид битрейта : Постоянный
Битрейт : 192 Кбит/сек
Каналы : 2 канала
Расположение каналов : Front: L R
Частота : 48,0 КГц
Битовая глубина : 16 бит
Метод сжатия : С потерями
Размер потока : 191 Мбайт (0%)
Заголовок : Русский АСЗ 192 kbps - ПД (НТВ+)
Язык : Russian
Default : Нет
Forced : Нет

Аудио #3
Идентификатор : 4
Формат : DTS
Формат/Информация : Digital Theater Systems
Профиль формата : MA / Core
Режим : 16
Параметр Endianness формата : Big
Идентификатор кодека : A_DTS
Продолжительность : 2 ч. 19 м.
Вид битрейта : Переменный
Битрейт : Неизвестно / 1509 Кбит/сек
Каналы : 6 каналов
Расположение каналов : Front: L C R, Side: L R, LFE
Частота : 48,0 КГц
Битовая глубина : 24 бит
Метод сжатия : Без потерь / Lossy
Заголовок : Русский DTS-HD MA 3972 kbps - АП (С. Визгунов)
Язык : Russian
Default : Нет
Forced : Нет

Аудио #4
Идентификатор : 5
Формат : DTS
Формат/Информация : Digital Theater Systems
Профиль формата : MA / Core
Режим : 16
Параметр Endianness формата : Big
Идентификатор кодека : A_DTS
Продолжительность : 2 ч. 19 м.
Вид битрейта : Переменный
Битрейт : Неизвестно / 1509 Кбит/сек
Каналы : 6 каналов
Расположение каналов : Front: L C R, Side: L R, LFE
Частота : 48,0 КГц
Битовая глубина : 24 бит
Метод сжатия : Без потерь / Lossy
Заголовок : Русский DTS-HD MA 3982 kbps - АП (Ю. Сербин)
Язык : Russian
Default : Нет
Forced : Нет

Аудио #5
Идентификатор : 6
Формат : AC-3
Формат/Информация : Audio Coding 3
Расширение режима : CM (complete main)
Параметр Endianness формата : Big
Идентификатор кодека : A_AC3
Продолжительность : 2 ч. 19 м.
Вид битрейта : Постоянный
Битрейт : 192 Кбит/сек
Каналы : 2 канала
Расположение каналов : Front: L R
Частота : 48,0 КГц
Битовая глубина : 16 бит
Метод сжатия : С потерями
Размер потока : 191 Мбайт (0%)
Заголовок : Украинский АСЗ 192 kbps - ПД (1+1)
Язык : Ukrainian
Default : Нет
Forced : Нет

Аудио #6
Идентификатор : 7
Формат : DTS
Формат/Информация : Digital Theater Systems
Профиль формата : MA / Core
Режим : 16
Параметр Endianness формата : Big
Идентификатор кодека : A_DTS
Продолжительность : 2 ч. 19 м.
Вид битрейта : Переменный
Битрейт : Неизвестно / 1509 Кбит/сек
Каналы : 6 каналов
Расположение каналов : Front: L C R, Side: L R, LFE
Частота : 48,0 КГц
Битовая глубина : 24 бит
Метод сжатия : Без потерь / Lossy
Заголовок : Английский 3947 kbps - Оригинал
Язык : English
Default : Нет
Forced : Нет

Текст #1
Идентификатор : 8
Формат : UTF-8
Идентификатор кодека : S_TEXT/UTF8
Идентификатор кодека/Информация : UTF-8 Plain Text
Заголовок : Русские
Язык : Russian
Default : Нет
Forced : Нет

Текст #2
Идентификатор : 9
Формат : UTF-8
Идентификатор кодека : S_TEXT/UTF8
Идентификатор кодека/Информация : UTF-8 Plain Text
Заголовок : Русские
Язык : Russian
Default : Нет
Forced : Нет

Текст #3
Идентификатор : 10
Формат : UTF-8
Идентификатор кодека : S_TEXT/UTF8
Идентификатор кодека/Информация : UTF-8 Plain Text
Заголовок : Английские
Язык : English
Default : Нет
Forced : Нет

Меню
00:00:00.000 : :Chapter 01
00:08:00.980 : :Chapter 02
00:10:10.150 : :Chapter 03
00:14:22.111 : :Chapter 04
00:18:21.349 : :Chapter 05
00:22:08.160 : :Chapter 06
00:29:12.292 : :Chapter 07
00:32:47.131 : :Chapter 08
00:37:40.341 : :Chapter 09
00:42:50.609 : :Chapter 10
00:45:20.342 : :Chapter 11
00:49:13.824 : :Chapter 12
00:58:51.653 : :Chapter 13
01:03:45.613 : :Chapter 14
01:09:04.723 : :Chapter 15
01:15:45.957 : :Chapter 16
01:19:52.078 : :Chapter 17
01:27:47.053 : :Chapter 18
01:38:18.767 : :Chapter 19
01:41:27.664 : :Chapter 20
01:44:57.291 : :Chapter 21
01:53:51.157 : :Chapter 22
01:59:29.370 : :Chapter 23
02:05:18.385 : :Chapter 24
02:14:03.034 : :Chapter 25
02:19:07.254 : :Chapter 26

pb.wtf



Скачать Талантливый мистер Рипли через торрент http://s018.radikal.ru/i511/1709/96/555526e28db5.jpg Скачать фильм Талантливый мистер Рипли через торрент бесплантно в хорошем качестве Описание: По мотивам романа Патриции Хайсмит. Как-то раз молодой парень Том Рипли, который еще не успел добиться никаких успехов в своей ... 10 10 7
Info! Золотая раздача, скачанное не засчитывается.
Торрент: Зарегистрирован [2017-09-18 11:10] · скачан: 5 раз
Статус: √ проверено
Размер: 37.53 GB
Как cкачать? Как скачать Талантливый мистер Рипли через торрент | qTorrent

% Раздел Тема Автор DL S | L
Фильмы [HD 720p, 1080p] (Хороший звук DUB, MVO) [ 11.21 GB ] Талантливый мистер Рипли / The Talented mr. Ripley [1999 BDRip 720p] diletant Скачать
1 | 0
Фильмы до 2000 г. [ 1.45 GB ] Талантливый мистер Рипли / The Talented Mr. Ripley [1999 HDRip] DUB -=Cherry=- Скачать
1 | 0

28-11-2019 20:33  

Отключить всю рекламу на сайте

    Дорогой пользователь! Огромная просьба, поблагодарите релизера, оцените раздачу и оставьте свои комментарий, если Вы скачали Талантливый мистер Рипли через торрент бесплатно! Внесите свою лепту в развитие PiratBit!
    Комментировать посты могут только пользователи прошедшие не сложную регистрацию
    Показать сообщения:    

    Талантливый мистер Рипли через торрент
    Скачать бесплатно Талантливый мистер Рипли
    Талантливый мистер Рипли скачать торрент
    Талантливый мистер Рипли смотреть онлайн
    Cкачать фильм Талантливый мистер Рипли бесплатно
    Талантливый мистер Рипли скачать торрент в хорошем качестве
    Талантливый мистер Рипли смотреть онлайн бесплатно в хорошем качестве


    Вы не можете начинать темы
    Вы не можете отвечать на сообщения
    Вы не можете редактировать свои сообщения
    Вы не можете удалять свои сообщения
    Вы не можете голосовать в опросах
    Вы не можете прикреплять файлы к сообщениям
    Вы можете скачивать файлы