Ссылка на приватное зеркало нашего сайта всего за 1$. Внимание количество ограничено!!!

2 сезон

iTunes

1 сезон

1

2 сезон

2 сезон

iTunes

1 сезон

RePack

30

Ultimate

ВАЖНО

ИГРА 18+

pack

RePack

MK11
pack

Забери бонус

RePack

jed

!!Акция!!

Alien_Rage

RePack

fifa19

RePack

Assassins Creed: Odyssey

RePack

NEED FOR SPEED™ PAYBACK

4 сезон

9 сезон

Бесстыжие 9 сезон

Все сериалы

все сериалы на PB.wtf

RePack

FAR CRY 5
  

Ловец снов / Dreamcatcher (Лоуренс Кэздан) [2003, фантастика, триллер, драма, BD Remux 1080p] DUB+2xDVO+5xAVO+3xMVO (rus, ukr) pb.wtf

Ловец снов через торрент pb.wtf

Раздают: 1 [ 0 KB/s ]
Размер: 43.6 GB | Добавлен: 3 года 2 мес. назад | Торрент скачан:42 раза
Скачать  

18-09-2017 15:30 Ловец снов Скачать торрент  

Ловец снов / DreamcatcherГод выпуска: 2003
Страна: США, Австралия
Жанр: фантастика, триллер, драма
Продолжительность: 02:13:47

Перевод:

Дубляж, профессиональный многоголосый,
профессиональный двухголосый, авторский одноголосый


Субтитры: Русские (forced, full), Английские (full)

Режиссер: Лоуренс Кэздан

rating

В ролях:

Морган Фриман, Томас Джейн, Джейсон Ли, Дэмиэн Льюис, Тимоти Олифант, Том Сайзмор, Донни Уолберг, Майки Хоулкамп, Рис Томпсон, Джакомо Бессато

Описание:

Джонси, Генри, Пит и Бивер. Двадцать лет назад они были просто мальчишками, проживающими в одном небольшом городке штата Мэн, — детьми, нашедшими в себе достаточно мужества, чтобы героически ответить на детскую жестокость. Награда за спасение странноватого мальчика по имени Даддитс совершенно неожиданно пришла к ним в виде сверхъестественных сил, связавших всех пятерых крепчайшими узами братства. Но когда на ежегодной охоте друзья собираются вместе в лесной хижине, то вместо ожидаемой теплой веселой атмосферы над ними начинает сгущаться абсолютное зло, приносящее гибель. Сначала к ним попадает незнакомец — затерявшийся в лесу охотник, которому и невдомек, что его организм поражен смертельной заразой. А вслед за ним возникает неистовствующий снежный буран, в эпицентре которого движется нечто еще более зловещее… Впереди — крупнейшее противостояние ужасу, не имеющему аналогов.

Качество: BD Remux 1080p
Формат: MKV
Видео кодек: H.264
Аудио кодек: AC3/DTS-HD MA

Видео: MPEG-4 AVC/H.264 / 29.9 mbps / 1920x1080 / 23.976 fps
Аудио#1: Русский / AC3 / 6 ch / 384 kbps / 48 kHz / дублированный R5
Аудио#2: Русский / AC3 / 2 ch / 192 kbps / 48 kHz / профессиональный многоголосый РТР
Аудио#3: Украинский / AC3 / 2 ch / 192 kbps / 48 kHz / профессиональный многоголосый ICTV
Аудио#4: Украинский / AC3 / 2 ch / 192 kbps / 48 kHz / профессиональный многоголосый 1+1
Аудио#05: Русский / AC3 / 2 ch / 192 kbps / 48 kHz / профессиональный двухголосый Universal Channel
Аудио#06: Русский / AC3 / 2 ch / 192 kbps / 48 kHz / профессиональный двухголосый DVD
Аудио#07: Русский / DTS-HD MA / 6 ch / 3755 kbps / 48 kHz / авторский одноголосый Гаврилов
Аудио#08: Русский / DTS-HD MA / 6 ch / 3765 kbps / 48 kHz / авторский одноголосый Живов
Аудио#09: Русский / DTS-HD MA / 6 ch / 3756 kbps / 48 kHz / авторский одноголосый Рудой
Аудио#10: Русский / AC3 / 2 ch / 192 kbps / 48 kHz / авторский одноголосый Визгунов
Аудио#11: Русский / AC3 / 2 ch / 128 kbps / 48 kHz / авторский одноголосый Карповский
Аудио#12: Английский / DTS-HD MA / 6 ch / 3728 kbps / 48 kHz / Original
скриншот   скриншот   скриншот   скриншот  

General
Complete name : H:TorrentЛовец снов (2003) BDRemux 1080p.mkv
Format : Matroska
File size : 43.6 GiB
Duration : 2h 13mn
Overall bit rate : 46.7 Mbps
Movie name : Ловец снов / Dreamcatcher (2003)
Encoded date : UTC 2017-02-25 10:17:36
Writing application : mkvmerge v5.5.0 ('Healer') built on Apr 24 2012 23:47:03
Writing library : libebml v1.2.3 + libmatroska v1.3.0
Cover : Yes

Video
ID : 1
Format : AVC
Format/Info : Advanced Video Codec
Format profile : High@L4.1
Format settings, CABAC : Yes
Format settings, ReFrames : 2 frames
Muxing mode : Container profile=Unknown@4.1
Codec ID : V_MPEG4/ISO/AVC
Duration : 2h 13mn
Width : 1 920 pixels
Height : 1 080 pixels
Display aspect ratio : 16:9
Frame rate : 23.976 fps
Resolution : 24 bits
Colorimetry : 4:2:0
Scan type : Progressive
Title : BDRemux (1080p) / MPEG-4 AVC/H.264 / 29.9 mbps / 1920x1080 / 23.976 fps

Audio #1
ID : 2
Format : AC-3
Format/Info : Audio Coding 3
Codec ID : A_AC3
Duration : 2h 13mn
Bit rate mode : Constant
Bit rate : 384 Kbps
Channel(s) : 6 channels
Channel positions : Front: L C R, Surround: L R, LFE
Sampling rate : 48.0 KHz
Stream size : 367 MiB (1%)
Title : DUB (Rus) / AC3 / 6 ch / 384 kbps / 48 kHz
Language : Russian

Audio #2
ID : 3
Format : AC-3
Format/Info : Audio Coding 3
Codec ID : A_AC3
Duration : 2h 13mn
Bit rate mode : Constant
Bit rate : 192 Kbps
Channel(s) : 2 channels
Channel positions : L R
Sampling rate : 48.0 KHz
Video delay : 2s 100ms
Stream size : 184 MiB (0%)
Title : MVO РТР (Rus) / AC3 / 2 ch / 192 kbps / 48 kHz
Language : Russian

Audio #3
ID : 4
Format : AC-3
Format/Info : Audio Coding 3
Codec ID : A_AC3
Duration : 2h 13mn
Bit rate mode : Constant
Bit rate : 192 Kbps
Channel(s) : 2 channels
Channel positions : L R
Sampling rate : 48.0 KHz
Video delay : 2s 0ms
Stream size : 184 MiB (0%)
Title : MVO ICTV (Ukr) / AC3 / 2 ch / 192 kbps / 48 kHz
Language : Ukrainian

Audio #4
ID : 5
Format : AC-3
Format/Info : Audio Coding 3
Codec ID : A_AC3
Duration : 2h 13mn
Bit rate mode : Constant
Bit rate : 192 Kbps
Channel(s) : 2 channels
Channel positions : L R
Sampling rate : 48.0 KHz
Video delay : 2s 0ms
Stream size : 184 MiB (0%)
Title : MVO 1+1 (Ukr) / AC3 / 2 ch / 192 kbps / 48 kHz
Language : Ukrainian

Audio #5
ID : 6
Format : AC-3
Format/Info : Audio Coding 3
Codec ID : A_AC3
Duration : 2h 13mn
Bit rate mode : Constant
Bit rate : 192 Kbps
Channel(s) : 2 channels
Channel positions : L R
Sampling rate : 48.0 KHz
Video delay : 2s 0ms
Stream size : 184 MiB (0%)
Title : DVO Universal Channel (Rus) / AC3 / 2 ch / 192 kbps / 48 kHz
Language : Russian

Audio #6
ID : 7
Format : AC-3
Format/Info : Audio Coding 3
Codec ID : A_AC3
Duration : 2h 13mn
Bit rate mode : Constant
Bit rate : 192 Kbps
Channel(s) : 2 channels
Channel positions : L R
Sampling rate : 48.0 KHz
Stream size : 184 MiB (0%)
Title : DVO DVD (Rus) / AC3 / 2 ch / 192 kbps / 48 kHz
Language : Russian

Audio #7
ID : 8
Format : DTS
Format/Info : Digital Theater Systems
Format profile : MA
Codec ID : A_DTS
Duration : 2h 13mn
Bit rate mode : Variable
Channel(s) : 6 channels
Channel positions : Front: L C R, Surround: L R, LFE
Sampling rate : 48.0 KHz
Resolution : 24 bits
Title : AVO Гаврилов (Rus) / DTS-HD MA / 6 ch / 3755 kbps / 48 kHz
Language : Russian

Audio #8
ID : 9
Format : DTS
Format/Info : Digital Theater Systems
Format profile : MA
Codec ID : A_DTS
Duration : 2h 13mn
Bit rate mode : Variable
Channel(s) : 6 channels
Channel positions : Front: L C R, Surround: L R, LFE
Sampling rate : 48.0 KHz
Resolution : 24 bits
Title : AVO Живов (Rus) / DTS-HD MA / 6 ch / 3765 kbps / 48 kHz
Language : Russian

Audio #9
ID : 10
Format : DTS
Format/Info : Digital Theater Systems
Format profile : MA
Codec ID : A_DTS
Duration : 2h 13mn
Bit rate mode : Variable
Channel(s) : 6 channels
Channel positions : Front: L C R, Surround: L R, LFE
Sampling rate : 48.0 KHz
Resolution : 24 bits
Title : AVO Рудой (Rus) / DTS-HD MA / 6 ch / 3756 kbps / 48 kHz
Language : Russian

Audio #10
ID : 11
Format : AC-3
Format/Info : Audio Coding 3
Codec ID : A_AC3
Duration : 2h 13mn
Bit rate mode : Constant
Bit rate : 192 Kbps
Channel(s) : 2 channels
Channel positions : L R
Sampling rate : 48.0 KHz
Stream size : 184 MiB (0%)
Title : AVO Визгунов (Rus) / AC3 / 2 ch / 192 kbps / 48 kHz
Language : Russian

Audio #11
ID : 12
Format : AC-3
Format/Info : Audio Coding 3
Codec ID : A_AC3
Duration : 2h 13mn
Bit rate mode : Constant
Bit rate : 128 Kbps
Channel(s) : 2 channels
Channel positions : L R
Sampling rate : 48.0 KHz
Video delay : 4s 100ms
Stream size : 122 MiB (0%)
Title : AVO Карповский (Rus) / AC3 / 2 ch / 128 kbps / 48 kHz
Language : Russian

Audio #12
ID : 13
Format : DTS
Format/Info : Digital Theater Systems
Format profile : MA
Codec ID : A_DTS
Duration : 2h 13mn
Bit rate mode : Variable
Channel(s) : 6 channels
Channel positions : Front: L C R, Surround: L R, LFE
Sampling rate : 48.0 KHz
Resolution : 24 bits
Title : Original (Eng) / DTS-HD MA / 6 ch / 3728 kbps / 48 kHz

Text #1
ID : 14
Format : UTF-8
Codec ID : S_TEXT/UTF8
Codec ID/Info : UTF-8 Plain Text
Title : Forced (Rus) / S_TEXT/UTF8
Language : Russian

Text #2
ID : 15
Format : UTF-8
Codec ID : S_TEXT/UTF8
Codec ID/Info : UTF-8 Plain Text
Title : Full (Rus) / S_TEXT/UTF8
Language : Russian

Text #3
ID : 16
Format : UTF-8
Codec ID : S_TEXT/UTF8
Codec ID/Info : UTF-8 Plain Text
Title : Full (Eng) / S_TEXT/UTF8

Menu
00:00:00.000 : en:00:00:00.000
00:06:18.044 : en:00:06:18.044
00:13:31.435 : en:00:13:31.435
00:20:32.981 : en:00:20:32.981
00:30:24.656 : en:00:30:24.656
00:36:30.730 : en:00:36:30.730
00:46:05.512 : en:00:46:05.512
00:52:31.565 : en:00:52:31.565
00:59:46.249 : en:00:59:46.249
01:05:41.479 : en:01:05:41.479
01:10:58.796 : en:01:10:58.796
01:21:54.367 : en:01:21:54.367
01:30:06.359 : en:01:30:06.359
01:35:03.197 : en:01:35:03.197
01:40:59.303 : en:01:40:59.303
01:47:01.039 : en:01:47:01.039
01:53:29.594 : en:01:53:29.594
01:59:50.850 : en:01:59:50.850
02:13:45.809 : en:02:13:45.809

pb.wtf



Скачать Ловец снов через торрент http://i91.fastpic.ru/big/2017/0918/95/59e5381df7fdd6e7dac3aa3c67f31c95.png Скачать фильм Ловец снов через торрент бесплантно в хорошем качестве Описание:Джонси, Генри, Пит и Бивер. Двадцать лет назад они были просто мальчишками, проживающими в одном небольшом городке штата Мэн, — ... 10 10 6
Info! Золотая раздача, скачанное не засчитывается.
Торрент: Зарегистрирован [2017-09-18 15:30] · скачан: 42 раз
Статус: √ проверено
Размер: 43.6 GB
Как cкачать? Как скачать Ловец снов через торрент | qTorrent

% Раздел Тема Автор DL S | L
Фильмы [HD 720p, 1080p] (Хороший звук DUB, MVO) [ 8.59 GB ] Ловец снов / Dreamcatcher [2003 BDRip-HEVC 1080p ] DUB+MVO+DVO+2xAVO bober100 Скачать
1 | 0
Фильмы 2001-2005 [ 2.18 GB ] Ловец снов / Dreamcatcher [2003 BDRip DUB лицензия] Ворон Скачать
2 | 0
Фильмы [HD 720p, 1080p] (Хороший звук DUB, MVO) [ 5.66 GB ] Ловец снов / Dreamcatcher [2003 BDRip 720p] DUB MVO AVO msltel Скачать
1 | 0
Фильмы [HD 720p, 1080p] (Хороший звук DUB, MVO) [ 12.26 GB ] Ловец снов / Dreamcatcher [2003 BDRip 1080p] DUB MVO AVO msltel Скачать
1 | 0
Фильмы 2001-2005 [ 2.98 GB ] Ловец снов / Dreamcatcher [2003 BDRip] DUB MVO AVO msltel Скачать
1 | 0
Фильмы 2001-2005 [ 2.25 GB ] Ловец снов / Dreamcatcher [2003 DVDRip DUB лицензия] jump88 Скачать
1 | 0
Фильмы 2001-2005 [ 1.46 GB ] Ловец снов / Dreamcatcher [2003 HDTVRip] -=BIGBOSS=- Скачать
1 | 0

28-11-2019 20:33  

Отключить всю рекламу на сайте

    Дорогой пользователь! Огромная просьба, поблагодарите релизера, оцените раздачу и оставьте свои комментарий, если Вы скачали Ловец снов через торрент бесплатно! Внесите свою лепту в развитие PiratBit!
    Комментировать посты могут только пользователи прошедшие не сложную регистрацию
    Показать сообщения:    

    Ловец снов через торрент
    Скачать бесплатно Ловец снов
    Ловец снов скачать торрент
    Ловец снов смотреть онлайн
    Cкачать фильм Ловец снов бесплатно
    Ловец снов скачать торрент в хорошем качестве
    Ловец снов смотреть онлайн бесплатно в хорошем качестве


    Вы не можете начинать темы
    Вы не можете отвечать на сообщения
    Вы не можете редактировать свои сообщения
    Вы не можете удалять свои сообщения
    Вы не можете голосовать в опросах
    Вы не можете прикреплять файлы к сообщениям
    Вы можете скачивать файлы