Ссылка на приватное зеркало нашего сайта всего за 1$. Внимание количество ограничено!!!

2 сезон

iTunes

1 сезон

1

2 сезон

2 сезон

iTunes

1 сезон

RePack

30

Ultimate

ВАЖНО

ИГРА 18+

pack

RePack

MK11
pack

Забери бонус

RePack

jed

!!Акция!!

Alien_Rage

RePack

fifa19

RePack

Assassins Creed: Odyssey

RePack

NEED FOR SPEED™ PAYBACK

4 сезон

9 сезон

Бесстыжие 9 сезон

Все сериалы

все сериалы на PB.wtf

RePack

FAR CRY 5
  

Стальная звезда / Звезда шерифа / Tin Star / Сезон: 1 / Серии 1-10 из 10 (Жиль Банньер, Марк Йобст, Грант Харви) [2017, Драма, триллер, HDTVRip] [MVO] (NewStudio) pb.wtf

Стальная звезда через торрент pb.wtf

Размер: 5.37 GB | Добавлен: 3 года 1 мес. назад | Торрент скачан:127 раз
Скачать  

18-09-2017 21:35 Стальная звезда Скачать торрент  

Стальная звезда / Звезда шерифа / Tin Star
• Год выпуска: 2017
• Страна: Великобритания, Kudos Film and Television
• Жанр: Драма, триллер
• Продолжительность: ~ 00:45:00
• Перевод: Профессиональный (многоголосый) | [NewStudio]
• Субтитры: нет

• Режиссёр: Жиль Банньер, Марк Йобст, Грант Харви

• В ролях: Тим Рот, Кристина Хендрикс, Кристофер Хейердал, Оливер Куперсмит, Линда Бойд, Tobi Bamtefa, Майк Ковач, Майлс Питерман, Сара Подемски, Райан Кеннеди

• Описание: История о том, как бывший полицейский детектив Джим Уорт из Лондона вместе с семьёй перебрался в городок у скалистых гор, чтобы возглавить местную полицию. После открытия неподалёку нефтеочистительного завода городок наводнили мигранты, спровоцировав рост преступности, проституции и наркоторговли. Попытки Джима восстановить порядок превратили его жизнь и жизнь его близких в ад, от которого некуда скрыться.



Релиз --

• Качество: HDTVRip
• Формат: AVI
• Видео: XviD, 720x400 (16:9), 23.976 fps, ~1400 kbps
• Аудио: MP3, 48 kHz, 2 ch, 128 kbps - Rus
• Аудио: MP3, 48 kHz, 2 ch, 128 kbps - Eng
General
Complete name : E:\Tin.Star.s01e01.HDTVRip.NewStudio.avi
Format : AVI
Format/Info : Audio Video Interleave
File size : 550 MiB
Duration : 45mn 22s
Overall bit rate : 1 695 Kbps
Writing application : VirtualDubMod 1.5.10.2 (build 2540/release)
Writing library : VirtualDubMod build 2540/release

Video
ID : 0
Format : MPEG-4 Visual
Format profile : Advanced Simple@L5
Format settings, BVOP : 2
Format settings, QPel : Yes
Format settings, GMC : No warppoints
Format settings, Matrix : Default (MPEG)
Muxing mode : Packed bitstream
Codec ID : XVID
Codec ID/Hint : XviD
Duration : 45mn 22s
Source duration : 30mn 48s
Bit rate : 1 437 Kbps
Width : 720 pixels
Height : 400 pixels
Display aspect ratio : 16:9
Frame rate : 25.000 fps
Color space : YUV
Chroma subsampling : 4:2:0
Bit depth : 8 bits
Scan type : Progressive
Compression mode : Lossy
Bits/(Pixel*Frame) : 0.200
Stream size : 317 MiB (58%)
Writing library : XviD 73

Audio #1
ID : 1
Format : MPEG Audio
Format version : Version 1
Format profile : Layer 3
Mode : Joint stereo
Mode extension : MS Stereo
Codec ID : 55
Codec ID/Hint : MP3
Duration : 45mn 22s
Source duration : 30mn 48s
Bit rate mode : Constant
Bit rate : 128 Kbps
Channel(s) : 2 channels
Sampling rate : 48.0 KHz
Compression mode : Lossy
Stream size : 28.2 MiB (5%)
Alignment : Aligned on interleaves
Interleave, duration : 40 ms (1.00 video frame)
Interleave, preload duration : 504 ms

Audio #2
ID : 2
Format : MPEG Audio
Format version : Version 1
Format profile : Layer 3
Mode : Joint stereo
Mode extension : MS Stereo
Codec ID : 55
Codec ID/Hint : MP3
Duration : 45mn 22s
Source duration : 30mn 48s
Bit rate mode : Constant
Bit rate : 128 Kbps
Channel(s) : 2 channels
Sampling rate : 48.0 KHz
Compression mode : Lossy
Stream size : 28.2 MiB (5%)
Alignment : Aligned on interleaves
Interleave, duration : 40 ms (1.00 video frame)
Interleave, preload duration : 504 ms
Writing library : LAME3.99r
Encoding settings : -m j -V 4 -q 2 -lowpass 17 -b 128

скриншот  скриншот  скриншот  
Когда раздача ведётся путём добавления новых серий, при каждом добавлении создётся новый торрент. Чтобы начать докачку новой серии, пользователям необходимо сделать следующее:
(1) остановить скачивание,
(2) удалить старый торрент у себя из клиента (старые серии удалять не надо),
(3) скачать новый торрент и запустить его у себя в клиенте вместо старого, при этом указать клиенту путь в старую папку, куда и должно происходить скачивание новых серий.
Ваш клиент при этом должен произвести хеширование (проверку) старой папки (если не производит сам - помогите ему сделать это), и будет докачивать только те серии, которых у вас ещё нет. Старые серии при этом не удаляются, а продолжают раздаваться!
Eсли вы уже удалили старые серии, то предотвратить повторную закачку старых серий можно, отжав галочку в соответсвующих местах при запуске нового торрента. По возможности, желательно не удалять старые серии как можно дольше, чтобы релизёр не столько продолжал раздавать старые серии, а смог сконцентрироваться на новых.
pb.wtf



Скачать Стальная звезда через торрент http://i91.fastpic.ru/big/2017/0906/3a/5cec316c34e5cebdadfc65c732ebbf3a.png Скачать фильм Стальная звезда через торрент бесплантно в хорошем качестве Описание: История о том, как бывший полицейский детектив Джим Уорт из Лондона вместе с семьёй перебрался в городок у скалистых гор, чтобы ... 9.1 10 7
Торрент: Зарегистрирован [2017-10-11 21:02] · скачан: 127 раз
Статус: √ проверено
Размер: 5.37 GB
Как cкачать? Как скачать Стальная звезда через торрент | qTorrent



Последний раз редактировалось: killermax2013 (2017-10-11 21:02), всего редактировалось 3 раз(а)

28-11-2019 20:33  

Отключить всю рекламу на сайте

18-09-2017 22:49 Стальная звезда Скачать торрент  

Блин. Я такой бредядены не смотрел давно ! все на столько запутанно непонятно и пипец как не понятно что смотреть просто невозможно!pb.wtf



22-09-2017 18:22 Стальная звезда Скачать торрент  

+2pb.wtf



06-10-2017 19:02 Стальная звезда Скачать торрент  

+3-6pb.wtf



11-10-2017 21:03 Стальная звезда Скачать торрент  

+7-10pb.wtf



    Дорогой пользователь! Огромная просьба, поблагодарите релизера, оцените раздачу и оставьте свои комментарий, если Вы скачали Стальная звезда через торрент бесплатно! Внесите свою лепту в развитие PiratBit!
    Комментировать посты могут только пользователи прошедшие не сложную регистрацию
    Показать сообщения:    

    Стальная звезда через торрент
    Скачать бесплатно Стальная звезда
    Стальная звезда скачать торрент
    Стальная звезда смотреть онлайн
    Cкачать фильм Стальная звезда бесплатно
    Стальная звезда скачать торрент в хорошем качестве
    Стальная звезда смотреть онлайн бесплатно в хорошем качестве


    Вы не можете начинать темы
    Вы не можете отвечать на сообщения
    Вы не можете редактировать свои сообщения
    Вы не можете удалять свои сообщения
    Вы не можете голосовать в опросах
    Вы не можете прикреплять файлы к сообщениям
    Вы можете скачивать файлы