Ссылка на приватное зеркало нашего сайта всего за 1$. Внимание количество ограничено!!!

2 сезон

iTunes

1 сезон

1

2 сезон

2 сезон

iTunes

1 сезон

RePack

30

Ultimate

ВАЖНО

ИГРА 18+

pack

RePack

MK11
pack

Забери бонус

RePack

jed

!!Акция!!

Alien_Rage

RePack

fifa19

RePack

Assassins Creed: Odyssey

RePack

NEED FOR SPEED™ PAYBACK

4 сезон

9 сезон

Бесстыжие 9 сезон

Все сериалы

все сериалы на PB.wtf

RePack

FAR CRY 5
  

Завучи / Viсе Principals / Сезон: 2 / Серии 1-9 из 9 (Дэвид Гордон Грин, Дэнни МакБрайд) [2017 г., США, комедия, WEBRip 720p] MVO [BaibaKo] pb.wtf

Завучи через торрент pb.wtf

Размер: 8 GB | Добавлен: 3 года назад | Торрент скачан:7 раз
Скачать  

19-09-2017 01:21 Завучи Скачать торрент  


Завучи / Viсе Principals


  • Год выпуска: 2017
  • Страна: США
  • Жанр: комедия
  • Продолжительность: ~00:30:00 (Серия)
  • Перевод: Профессиональный многоголосый закадровый [BaibaKo]
  • Режиссер: Дэвид Гордон Грин, Дэнни МакБрайд
  • В ролях:
    Дэнни МакБрайд, Уолтон Гоггинс, Джорджия Кинг, Джеймс Алком, Кимберли Хеберт Грегори, Эди Паттерсон, Сьюзэн Парк, Бизи Филиппс, Дженнифер Гатти, Дейл Дикки и др.


  • Нил Гэмби и Ли Рассел – заместители директора школы Линкольн Хилл. Их начальница, Доктор Белинда Браун, могущественная и уверенная в себе женщина. И тем больше они желают свергнуть её. Им надоело, что на них сваливается, по сути, вся работа – от воплощения в жизнь выдумок ненавистной директрисы до составления учебной программы и поддержания дисциплины. Нил является идеологом школьного переворота, а Ли, как коварный политикан, вступает с ним в нечестивый союз.
  • Рейтинг:



  • Качество: WEBRip 720p
  • Формат: :MKV
  • Видео кодек: AVC
  • Аудио кодек: AC3
  • Видео: 3023 Кбит/сек, 1280*720 (16:9), в 23,976 (24000/1001) кадра/сек, AVC
  • Аудио №1: русский 640 Кбит/сек, 48,0 КГц, 16 бит, 6 каналов, AC-3 |[BaibaKo]|
  • Аудио №2: английский 640 Кбит/сек, 48,0 КГц, 16 бит, 6 каналов, AC-3
  • Релиз от: GEKADOL

    Внимание! Раздача ведётся путём добавления новых серий; при каждом добавлении создаётся новый торрент. Чтобы начать докачку новой серии, пользователям необходимо сделать следующее:
    (1) остановить скачивание,
    (2) удалить старый торрент у себя из клиента (старые серии удалять не надо),
    (3) скачать новый торрент и запустить его у себя в клиенте вместо старого, при этом указать клиенту путь в старую папку куда и должно происходить скачивание новых серий.
    Ваш клиент при этом должен произвести хеширование (проверку) старой папки (если не производит сам - помогите ему сделать это), и будет докачивать только те серии которых у вас ещё нет. Старые серии при этом не удаляются, а продолжают раздаваться!
    Eсли вы уже удалили старые серии, то предотвратить повторную закачку старых серий можно, отжав галочку в соответствующих местах при запуске нового торрента. По возможности, желательно не удалять старые серии как можно дольше чтобы релизёр не столько продолжал раздавать старые серии, а смог сконцентрироваться на новых.

    Общее
    Уникальный идентификатор : 171774747304271334800111711769061708000 (0x813A9CEA70E0B3B8B7BA7D2C546750E0)
    Полное имя : F:\Завучи (Viсе Principals 2)\Viсе.Principals.s02e01.HD720p.WEBRip.Rus.Eng.BaibaKo.tv.mkv
    Формат : Matroska
    Версия формата : Version 4 / Version 2
    Размер файла : 952 Мбайт
    Продолжительность : 30 м. 54 с.
    Режим общего битрейта : Переменный
    Общий поток : 4305 Кбит/сек
    Дата кодирования : UTC 2017-09-19 01:10:30
    Программа кодирования : mkvmerge v7.1.0 ('Good Love') 64bit built on Jul 27 2014 13:06:55
    Библиотека кодирования : libebml v1.3.0 + libmatroska v1.4.1

    Видео
    Идентификатор : 1
    Формат : AVC
    Формат/Информация : Advanced Video Codec
    Профиль формата : High@L3.1
    Параметр CABAC формата : Да
    Параметр RefFrames формата : 5 кадров
    Идентификатор кодека : V_MPEG4/ISO/AVC
    Продолжительность : 30 м. 54 с.
    Вид битрейта : Переменный
    Битрейт : 3023 Кбит/сек
    Максимальный битрейт : 4500 Кбит/сек
    Ширина : 1280 пикселей
    Высота : 720 пикселей
    Соотношение сторон : 16:9
    Режим частоты кадров : Постоянный
    Частота кадров : 23,976 (24000/1001) кадра/сек
    Цветовое пространство : YUV
    Субдискретизация насыщенности : 4:2:0
    Битовая глубина : 8 бит
    Тип развёртки : Прогрессивная
    Бит/(Пиксели*Кадры) : 0.137
    Размер потока : 668 Мбайт (70%)
    Default : Нет
    Forced : Нет
    Цветовой диапазон : Limited
    Основные цвета : BT.709
    Характеристики трансфера : BT.709
    Коэффициенты матрицы : BT.709

    Аудио #1
    Идентификатор : 2
    Формат : AC-3
    Формат/Информация : Audio Coding 3
    Параметр Endianness формата : Big
    Идентификатор кодека : A_AC3
    Продолжительность : 30 м. 54 с.
    Вид битрейта : Постоянный
    Битрейт : 640 Кбит/сек
    Каналы : 6 каналов
    Расположение каналов : Front: L C R, Side: L R, LFE
    Частота : 48,0 КГц
    Частота кадров : 31,250 кадров/сек (1536 SPF)
    Битовая глубина : 16 бит
    Метод сжатия : С потерями
    Задержка видео : 9 мс.
    Размер потока : 142 Мбайт (15%)
    Язык : Russian
    ServiceKind/String : Complete Main
    Default : Да
    Forced : Нет

    Аудио #2
    Идентификатор : 3
    Формат : AC-3
    Формат/Информация : Audio Coding 3
    Параметр Endianness формата : Big
    Идентификатор кодека : A_AC3
    Продолжительность : 30 м. 54 с.
    Вид битрейта : Постоянный
    Битрейт : 640 Кбит/сек
    Каналы : 6 каналов
    Расположение каналов : Front: L C R, Side: L R, LFE
    Частота : 48,0 КГц
    Частота кадров : 31,250 кадров/сек (1536 SPF)
    Битовая глубина : 16 бит
    Метод сжатия : С потерями
    Задержка видео : 9 мс.
    Размер потока : 142 Мбайт (15%)
    Язык : English
    ServiceKind/String : Complete Main
    Default : Нет
    Forced : Нет




    Скриншоты:
    скриншот   скриншот   скриншот   скриншот   скриншот   скриншот   скриншот  
    скриншот  

    Раздача ведётся путём добавления новых серий. Добавлена 9 серия (14.11.2017).Просьба перекачать торрент файл.


    pb.wtf



  • Скачать Завучи через торрент http://pic1.kartinco.top/images/11/jnk2g.jpg Скачать фильм Завучи через торрент бесплантно в хорошем качестве qw.png Нил Гэмби и Ли Рассел – заместители директора школы Линкольн Хилл. Их начальница, Доктор Белинда Браун, могущественная и уверенная ... 3.3 10 4
    Info! Золотая раздача, скачанное не засчитывается.
    Торрент: Зарегистрирован [2017-11-14 07:45] · скачан: 7 раз
    Статус: √ проверено
    Размер: 8 GB
    Как cкачать? Как скачать Завучи через торрент | qTorrent



    Последний раз редактировалось: GEKADOL (2017-11-14 07:45), всего редактировалось 1 раз

    28-11-2019 20:33  

    Отключить всю рекламу на сайте

    07-11-2017 11:47 Завучи Скачать торрент  

    Заменена 4 серия на PROPER!!! pb.wtf



      Дорогой пользователь! Огромная просьба, поблагодарите релизера, оцените раздачу и оставьте свои комментарий, если Вы скачали Завучи через торрент бесплатно! Внесите свою лепту в развитие PiratBit!
      Комментировать посты могут только пользователи прошедшие не сложную регистрацию
      Показать сообщения:    

      Завучи через торрент
      Скачать бесплатно Завучи
      Завучи скачать торрент
      Завучи смотреть онлайн
      Cкачать фильм Завучи бесплатно
      Завучи скачать торрент в хорошем качестве
      Завучи смотреть онлайн бесплатно в хорошем качестве


      Вы не можете начинать темы
      Вы не можете отвечать на сообщения
      Вы не можете редактировать свои сообщения
      Вы не можете удалять свои сообщения
      Вы не можете голосовать в опросах
      Вы не можете прикреплять файлы к сообщениям
      Вы можете скачивать файлы