Ссылка на приватное зеркало нашего сайта всего за 1$. Внимание количество ограничено!!!

2 сезон

iTunes

1 сезон

1

2 сезон

2 сезон

iTunes

1 сезон

RePack

30

Ultimate

ВАЖНО

ИГРА 18+

pack

RePack

MK11
pack

Забери бонус

RePack

jed

!!Акция!!

Alien_Rage

RePack

fifa19

RePack

Assassins Creed: Odyssey

RePack

NEED FOR SPEED™ PAYBACK

4 сезон

9 сезон

Бесстыжие 9 сезон

Все сериалы

все сериалы на PB.wtf

RePack

FAR CRY 5
  

Озарк / Ozark / Сезон 1 / Серии 1-10 из 10 (Джейсон Бейтмен, Эндрю Бернштейн) [2017, триллер, драма, криминал, WEBRip 720p] DVO [Кубик в Кубе] pb.wtf

Озарк через торрент pb.wtf

Раздают: 1 [ 0 KB/s ]
Размер: 18.92 GB | Добавлен: 3 года 2 мес. назад | Торрент скачан:235 раз
Скачать  

19-09-2017 11:02 Озарк Скачать торрент  

Озарк / OzarkГод выпуска: 2017
Страна: США
Жанр: триллер, драма, криминал
Продолжительность: 10 ~ 00:55:00
Перевод: Профессиональный двухголосый - Кубик в Кубе
Субтитры: английские

Режиссер: Джейсон Бейтмен, Эндрю Бернштейн

rating

В ролях:

Джейсон Бейтмен, Джейсон Батлер Харнер, Энтони Коллинс, София Хьюблиц, Лора Линни, Скайлар Гертнер, Кристофер Джеймс Бэйкер, Марк Менчака и др.

Описание:

Финансовый консультант Марти Бёрд вместе с женой Вэнди и остальными членами семьи вынужден тайно переехать из престижного предместья Чикаго в курортный городок Озарк штата Миссури. К неожиданному переезду главного героя вынудили крупные долги, и на новом месте он надеется поправить своё финансовое положение.

Качество: WEBRip 720p
Формат: MKV
Видео кодек: H.264
Аудио кодек: AC3

Видео: MPEG-4 AVC, ~ 2800 Кбит/с, 1280x640
Аудио#1: Русский (AC3, 6 ch, 384 Кбит/с)
Аудио#2: английский (AC3, 6 ch, 384 Кбит/с)


скриншот   скриншот   скриншот   скриншот  

Общее
Уникальный идентификатор : 251014767676962497675886821305681879406 (0xBCD7AF8DA7E5C53C90182DFC5BB6A16E)
Полное имя : D:\Ozark.S01.720p.WEBRip.KvK.CasStudio.TV\Ozark.S01E01.Sugarwood.720p.WEBRip.KvK.CasStudio.TV.mkv
Формат : Matroska
Версия формата : Version 4 / Version 2
Размер файла : 1,47 Гбайт
Продолжительность : 58 м. 10 с.
Общий поток : 3621 Кбит/сек
Название фильма : Ozark 01x01 (Sugarwood) -release by messafan for CasStudio.TV
Дата кодирования : UTC 2017-08-01 16:16:55
Программа кодирования : mkvmerge v6.7.0 ('Back to the Ground') 64bit built on Jan 8 2014 15:10:52
Библиотека кодирования : libebml v1.3.0 + libmatroska v1.4.1

Видео
Идентификатор : 1
Формат : AVC
Формат/Информация : Advanced Video Codec
Профиль формата : High@L4.1
Параметр CABAC формата : Да
Параметр ReFrames формата : 10 кадров
Идентификатор кодека : V_MPEG4/ISO/AVC
Продолжительность : 58 м. 10 с.
Битрейт : 2781 Кбит/сек
Ширина : 1280 пикселей
Высота : 640 пикселей
Соотношение сторон : 2,000
Режим частоты кадров : Постоянный
Частота кадров : 23,976 (24000/1001) кадра/сек
Цветовое пространство : YUV
Субдискретизация насыщенности : 4:2:0
Битовая глубина : 8 бит
Тип развёртки : Прогрессивная
Бит/(Пиксели*Кадры) : 0.142
Размер потока : 1,13 Гбайт (77%)
Библиотека кодирования : x264 core 144 r2525 40bb568
Настройки программы : cabac=1 / ref=10 / deblock=1:-3:-3 / analyse=0x3:0x133 / me=umh / subme=10 / psy=1 / psy_rd=1.00:0.00 / mixed_ref=1 / me_range=48 / chroma_me=1 / trellis=2 / 8x8dct=1 / cqm=0 / deadzone=21,11 / fast_pskip=0 / chroma_qp_offset=-2 / threads=12 / lookahead_threads=2 / sliced_threads=0 / nr=0 / decimate=0 / interlaced=0 / bluray_compat=0 / constrained_intra=0 / bframes=8 / b_pyramid=2 / b_adapt=2 / b_bias=0 / direct=3 / weightb=1 / open_gop=0 / weightp=2 / keyint=250 / keyint_min=23 / scenecut=40 / intra_refresh=0 / rc=crf / mbtree=0 / crf=17.0 / qcomp=0.60 / qpmin=0 / qpmax=69 / qpstep=4 / ip_ratio=1.30 / pb_ratio=1.20 / aq=3:0.80
Язык : English
Default : Да
Forced : Нет

Аудио #1
Идентификатор : 2
Формат : AC-3
Формат/Информация : Audio Coding 3
Расширение режима : CM (complete main)
Параметр Endianness формата : Big
Идентификатор кодека : A_AC3
Продолжительность : 58 м. 10 с.
Вид битрейта : Постоянный
Битрейт : 384 Кбит/сек
Каналы : 6 каналов
Расположение каналов : Front: L C R, Side: L R, LFE
Частота : 48,0 КГц
Частота кадров : 31,250 кадров/сек (1536 spf)
Метод сжатия : С потерями
Размер потока : 160 Мбайт (11%)
Заголовок : KvK 5.1
Язык : Russian
Default : Да
Forced : Нет

Аудио #2
Идентификатор : 3
Формат : AC-3
Формат/Информация : Audio Coding 3
Расширение режима : CM (complete main)
Параметр Endianness формата : Big
Идентификатор кодека : A_AC3
Продолжительность : 58 м. 10 с.
Вид битрейта : Постоянный
Битрейт : 384 Кбит/сек
Каналы : 6 каналов
Расположение каналов : Front: L C R, Side: L R, LFE
Частота : 48,0 КГц
Частота кадров : 31,250 кадров/сек (1536 spf)
Метод сжатия : С потерями
Размер потока : 160 Мбайт (11%)
Заголовок : English 5.1
Язык : English
Default : Нет
Forced : Нет

Текст #1
Идентификатор : 4
Формат : UTF-8
Идентификатор кодека : S_TEXT/UTF8
Идентификатор кодека/Информация : UTF-8 Plain Text
Заголовок : Eng Forced
Язык : English
Default : Нет
Forced : Нет

Текст #2
Идентификатор : 5
Формат : UTF-8
Идентификатор кодека : S_TEXT/UTF8
Идентификатор кодека/Информация : UTF-8 Plain Text
Заголовок : Eng sub
Язык : English
Default : Нет
Forced : Нет
pb.wtf



Скачать Озарк через торрент http://s016.radikal.ru/i335/1709/13/f7f593564173.jpg Скачать фильм Озарк через торрент бесплантно в хорошем качестве Описание: Финансовый консультант Марти Бёрд вместе с женой Вэнди и остальными членами семьи вынужден тайно переехать из престижного ... 8.6 10 5
Info! Серебряная раздача, засчитывается только 50% скачанного.
Торрент: Зарегистрирован [2017-09-19 11:02] · скачан: 235 раз
Статус: √ проверено
Размер: 18.92 GB
Как cкачать? Как скачать Озарк через торрент | qTorrent

% Раздел Тема Автор DL S | L
Зарубежные сериалы [ 33.67 GB ] Озарк / Ozark / Сезон: 3 / Серии: 1-10 из 10 [2020 WEBRip 720p] [DVO] killermax2013 Скачать
2 | 0
Зарубежные сериалы [ 8.49 GB ] Озарк / Ozark / Сезон: 3 / Серии: 1-10 из 10 [2020 WEB-DLRip] DUB [Пифагор / Netflix] bober100 Скачать
1 | 0
Зарубежные сериалы [ 31.92 GB ] Озарк / Ozark / Сезон: 3 / Серии: 1-10 из 10 [2020 WEBRip 1080p] MVO [Jaskier] bober100 Скачать
1 | 0
Зарубежные сериалы [ 10.42 GB ] Озарк / Ozark / Сезон: 3 / Серии: 1-10 из 10 [2020 WEBRip 720p] MVO [Jaskier] bober100 Скачать
1 | 0
Зарубежные сериалы [ 7.58 GB ] Озарк / Ozark / Сезон: 3 / Серии: 1-10 из 10 [2020 WEBRip] MVO [Jaskier] bober100 Скачать
1 | 0
Зарубежные сериалы [ 8.49 GB ] Озарк / Ozark / Сезон: 3 / Серии: 1-10 из 10 [2020 WEBRip] MVO [LostFilm] bober100 Скачать
2 | 0
Зарубежные сериалы [ 49.73 GB ] Озарк / Ozark / Сезон: 3 / Серии: 1-10 из 10 [2020 WEBRip 1080p] MVO [LostFilm] bober100 Скачать
1 | 0

28-11-2019 20:33  

Отключить всю рекламу на сайте

    Дорогой пользователь! Огромная просьба, поблагодарите релизера, оцените раздачу и оставьте свои комментарий, если Вы скачали Озарк через торрент бесплатно! Внесите свою лепту в развитие PiratBit!
    Комментировать посты могут только пользователи прошедшие не сложную регистрацию
    Показать сообщения:    

    Озарк через торрент
    Скачать бесплатно Озарк
    Озарк скачать торрент
    Озарк смотреть онлайн
    Cкачать фильм Озарк бесплатно
    Озарк скачать торрент в хорошем качестве
    Озарк смотреть онлайн бесплатно в хорошем качестве


    Вы не можете начинать темы
    Вы не можете отвечать на сообщения
    Вы не можете редактировать свои сообщения
    Вы не можете удалять свои сообщения
    Вы не можете голосовать в опросах
    Вы не можете прикреплять файлы к сообщениям
    Вы можете скачивать файлы