2 сезон

iTunes

MVO

1

2 сезон

iTunes

iTunes

1 сезон

RePack

30

Новинка

ВАЖНО

ИГРА 18+

pack

RePack

MK11
pack

Легкие деньги

RePack

jed

RePack

fifa19

RePack

RDR2

RePack

NEED FOR SPEED™ PAYBACK

4 сезон

9 сезон

Бесстыжие 9 сезон

Все сериалы

все сериалы на PB.wtf

RePack

FAR CRY 5

Anonymous, добрый день, мы не успеваем собрать деньги на оплату серверов за декабрь и январь, помогите нам пожалуйста в это трудное время. В качестве благодарности мы отключим Вам всю рекламу на сайте (укажите свой ник в строку Ваше имя)!

×
  
Magnet ссылка

Мумия в 3Д / The Mummy 3D (Алекс Куртцман) [2017 г., Фэнтези, Боевик, Триллер, Приключения, BDRip 1080p] Half OverUnder / Вертикальная анаморфная стереопара pb.wtf

Мумия в 3Д через торрент pb.wtf

Размер: 12.08 GB | Добавлен: 3 года 3 мес. назад | Торрент скачан:329 раз
Скачать  

19-09-2017 11:50 Мумия в 3Д Скачать торрент  

Мумия в 3Д / The Mummy 3D«Отныне миром правят боги и монстры» Год выпуска: 2017
Страна: США
Жанр: Фэнтези, Боевик, Триллер, Приключения
Продолжительность: 01:50:07
Перевод: Профессиональный дублированный - iTunes
Субтитры: Русские (forced, full), Украинские (forced), Английские (Forced, Full, SDH)
Режиссер: Алекс Куртцман

rating
В ролях:
Том Круз, Рассел Кроу, Аннабелль Уоллис, София Бутелла, Джейк Джонсон, Кортни Б. Вэнс, Марван Кензари, Саймон Атертон, Стивен Томпсон, Джеймс Арама
Описание:
Посреди безжалостной пустыни в величественном саркофаге погребена дочь египетского фараона, но настанет день, и она явится в наш мир вернуть себе то, что принадлежит ей по праву. Отныне миром правят боги и монстры.
Качество: BDRip 1080p (by Ash61)
Формат: MKV
Видео кодек: H.264
Аудио кодек: AC3
Формат 3D: Half OverUnder / Вертикальная анаморфная стереопара
Видео: AVC / 1920х1080 / 23,976 fps / 14.5 Mbps
Аудио#1: Русский / AC3 / 48 KHz / 5.1 ch / 384 Kbps (Дубляж - iTunes)
Аудио#2: Украинский / AC3 / 48 KHz / 2 ch / 192 Kbps (Дубляж - Line)
Аудио#3: Английский / AC3 / 48 KHz / 5.1 ch / 640 Kbps (Original - BD 3D)

Субтитры Внешние (UTF-8): Русские Форсированные (включены по умолчанию), Русские Полные, Украинские Форсированные



General
Unique ID : 238049839860245494458814373049488550861 (0xB316BB428ED403139E6261BE9012ABCD)
Complete name : D:TheMummy(2017)3D-halfOU(Ash61)iTunesTheMummy(2017)3D-halfOU(Ash61)iTunes.mkv
Format : Matroska
Format version : Version 2
File size : 12.1 GiB
Duration : 1 h 50 min
Overall bit rate : 15.7 Mb/s
Movie name : Мумия / The Mummy (2017) в 3Д
Encoded date : UTC 2017-09-19 08:07:32
Writing application : mkvmerge v5.8.0 ('No Sleep / Pillow') built on Sep 2 2012 15:37:04
Writing library : libebml v1.2.3 + libmatroska v1.3.0

Video
ID : 1
Format : AVC
Format/Info : Advanced Video Codec
Format profile : High@L4.1
Format settings, CABAC : Yes
Format settings, RefFrames : 4 frames
Codec ID : V_MPEG4/ISO/AVC
Duration : 1 h 50 min
Bit rate : 14.5 Mb/s
Width : 1 920 pixels
Height : 1 080 pixels
Display aspect ratio : 16:9
Frame rate mode : Constant
Frame rate : 23.976 (24000/1001) FPS
Color space : YUV
Chroma subsampling : 4:2:0
Bit depth : 8 bits
Scan type : Progressive
Bits/(Pixel*Frame) : 0.292
Stream size : 10.9 GiB (90%)
Title : BDRip by Ash61
Writing library : x264 core 146 r2538 121396c
Encoding settings : cabac=1 / ref=4 / deblock=1:-3:-3 / analyse=0x3:0x113 / me=umh / subme=10 / psy=1 / psy_rd=1.00:0.00 / mixed_ref=1 / me_range=32 / chroma_me=1 / trellis=2 / 8x8dct=1 / cqm=0 / deadzone=21,11 / fast_pskip=0 / chroma_qp_offset=-2 / threads=12 / lookahead_threads=3 / sliced_threads=0 / nr=0 / decimate=0 / interlaced=0 / bluray_compat=0 / constrained_intra=0 / bframes=12 / b_pyramid=2 / b_adapt=2 / b_bias=0 / direct=3 / weightb=1 / open_gop=0 / weightp=2 / keyint=250 / keyint_min=23 / scenecut=40 / intra_refresh=0 / rc=2pass / mbtree=0 / bitrate=14500 / ratetol=1.0 / qcomp=0.70 / qpmin=0 / qpmax=69 / qpstep=4 / cplxblur=20.0 / qblur=0.5 / frame-packing=4 / ip_ratio=1.40 / pb_ratio=1.30 / aq=1:0.70
Language : English
Default : Yes
Forced : No

Audio #1
ID : 2
Format : AC-3
Format/Info : Audio Coding 3
Format settings, Endianness : Big
Codec ID : A_AC3
Duration : 1 h 50 min
Bit rate mode : Constant
Bit rate : 384 kb/s
Channel(s) : 6 channels
Channel positions : Front: L C R, Side: L R, LFE
Sampling rate : 48.0 kHz
Frame rate : 31.250 FPS (1536 SPF)
Bit depth : 16 bits
Compression mode : Lossy
Stream size : 302 MiB (2%)
Title : Дубляж - iTunes
Language : Russian
Service kind : Complete Main
Default : Yes
Forced : No

Audio #2
ID : 3
Format : AC-3
Format/Info : Audio Coding 3
Format settings, Endianness : Big
Codec ID : A_AC3
Duration : 1 h 50 min
Bit rate mode : Constant
Bit rate : 192 kb/s
Channel(s) : 2 channels
Channel positions : Front: L R
Sampling rate : 48.0 kHz
Frame rate : 31.250 FPS (1536 SPF)
Bit depth : 16 bits
Compression mode : Lossy
Stream size : 151 MiB (1%)
Title : Дубляж - Line (моно)
Language : Ukrainian
Service kind : Complete Main
Default : No
Forced : No

Audio #3
ID : 4
Format : AC-3
Format/Info : Audio Coding 3
Format settings, Endianness : Big
Codec ID : A_AC3
Duration : 1 h 50 min
Bit rate mode : Constant
Bit rate : 640 kb/s
Channel(s) : 6 channels
Channel positions : Front: L C R, Side: L R, LFE
Sampling rate : 48.0 kHz
Frame rate : 31.250 FPS (1536 SPF)
Bit depth : 16 bits
Compression mode : Lossy
Stream size : 504 MiB (4%)
Title : Original
Language : English
Service kind : Complete Main
Default : No
Forced : No

Text #1
ID : 5
Format : UTF-8
Codec ID : S_TEXT/UTF8
Codec ID/Info : UTF-8 Plain Text
Title : Форсированные
Language : Russian
Default : Yes
Forced : No

Text #2
ID : 6
Format : UTF-8
Codec ID : S_TEXT/UTF8
Codec ID/Info : UTF-8 Plain Text
Title : Полные (iTunes)
Language : Russian
Default : No
Forced : No

Text #3
ID : 7
Format : UTF-8
Codec ID : S_TEXT/UTF8
Codec ID/Info : UTF-8 Plain Text
Title : Форсированные
Language : Ukrainian
Default : No
Forced : No

Text #4
ID : 8
Format : UTF-8
Codec ID : S_TEXT/UTF8
Codec ID/Info : UTF-8 Plain Text
Title : Forced
Language : English
Default : No
Forced : No

Text #5
ID : 9
Format : UTF-8
Codec ID : S_TEXT/UTF8
Codec ID/Info : UTF-8 Plain Text
Title : Full
Language : English
Default : No
Forced : No

Text #6
ID : 10
Format : UTF-8
Codec ID : S_TEXT/UTF8
Codec ID/Info : UTF-8 Plain Text
Title : SDH
Language : English
Default : No
Forced : No

Menu
00:00:00.000 : :1
00:08:18.706 : :2
00:13:18.923 : :3
00:19:31.461 : :4
00:24:40.144 : :5
00:28:54.105 : :6
00:35:41.389 : :7
00:39:36.039 : :8
00:47:00.067 : :9
00:50:57.637 : :10
00:56:49.739 : :11
01:00:43.849 : :12
01:08:58.009 : :13
01:16:03.850 : :14
01:19:38.439 : :15
01:23:16.408 : :16
01:26:26.846 : :17
01:33:34.943 : :18
01:37:02.984 : :19
01:39:47.980 : :20
pb.wtf



Скачать Мумия в 3Д через торрент http://i89.fastpic.ru/big/2017/0919/7c/2cb7c17ae7644fec5dafd0aef5e37d7c.png Скачать фильм Мумия в 3Д через торрент бесплантно в хорошем качестве Описание: Посреди безжалостной пустыни в величественном саркофаге погребена дочь египетского фараона, но настанет день, и она явится в наш ... 10 10 5
Торрент: Зарегистрирован [2017-09-19 11:50] · скачан: 329 раз
Статус: √ проверено
Размер: 12.08 GB
Как cкачать? Как скачать Мумия в 3Д через торрент | UTorrent

28-11-2019 20:33  

Отключить всю рекламу на сайте

    Дорогой пользователь! Огромная просьба, поблагодарите релизера, оцените раздачу и оставьте свои комментарий, если Вы скачали Мумия в 3Д через торрент бесплатно! Внесите свою лепту в развитие PiratBit!
    Комментировать посты могут только пользователи прошедшие не сложную регистрацию
    Показать сообщения:    

    Мумия в 3Д через торрент
    Скачать бесплатно Мумия в 3Д
    Мумия в 3Д скачать торрент
    Мумия в 3Д смотреть онлайн
    Cкачать фильм Мумия в 3Д бесплатно
    Мумия в 3Д скачать торрент в хорошем качестве
    Мумия в 3Д смотреть онлайн бесплатно в хорошем качестве


    Вы не можете начинать темы
    Вы не можете отвечать на сообщения
    Вы не можете редактировать свои сообщения
    Вы не можете удалять свои сообщения
    Вы не можете голосовать в опросах
    Вы не можете прикреплять файлы к сообщениям
    Вы можете скачивать файлы