Ссылка на приватное зеркало нашего сайта всего за 1$. Внимание количество ограничено!!!

2 сезон

iTunes

1 сезон

1

2 сезон

2 сезон

iTunes

1 сезон

RePack

30

Ultimate

ВАЖНО

ИГРА 18+

pack

RePack

MK11
pack

Забери бонус

RePack

jed

!!Акция!!

Alien_Rage

RePack

fifa19

RePack

Assassins Creed: Odyssey

RePack

NEED FOR SPEED™ PAYBACK

4 сезон

9 сезон

Бесстыжие 9 сезон

Все сериалы

все сериалы на PB.wtf

RePack

FAR CRY 5
  

Последний корабль / The Last Ship / Сезон 2 / Серии 1-13 из 13 (Майкл Бэй, Тони Марк, Тодд Арноу) [2015, Фантастика, боевик, постапокалипсис, WEB-DL 720p] MVO [LostFilm] pb.wtf

Последний корабль через торрент pb.wtf

Размер: 18.28 GB | Добавлен: 3 года 2 мес. назад | Торрент скачан:46 раз
Скачать  

19-09-2017 17:46 Последний корабль Скачать торрент  

***** Последний корабль / The Last Ship ***** Год выпуска: 2015
Страна: США
Жанр: Фантастика, боевик, постапокалипсис
Продолжительность: 13 ~ 00:45:00
Перевод: Профессиональный многоголосый - LostFilm
Субтитры: отсутствуют

Режиссер: Майкл Бэй, Тони Марк, Тодд Арноу

rating

В ролях:

Рона Митра, Эрик Дэйн, Адам Болдуин, Михаэлла МакМанус, Марисса Нейтлинг, Трэвис Ван Винкл, Чарльз Парнелл, Кристина Элмор, Джоко Симс, Джон Пайпер-Фергюсон, Кевин Майкл Мартин

Описание:

В сюжет данного телесериала легла одноименная книга Уильяма Бринкли. Все начинается с того момента, когда экипаж одного из военных кораблей совершенно внезапно узнает о том, что весь мир поразила страшная эпидемия неизвестного смертельного вируса. И пока они находятся в плаванье, их этот вирус не трогает, хотя практически восемьдесят процентов населения уже смертельно больны. К счастью на борту оказался вирусолог Рейчел Скотт, женщина которой дали задание сделать вакцину от смертельного вируса. Проблема только в том, что о вирусе ничего толком не известно. А тут еще на корабле появились те, кто решил , что именно они были оставлены богом, что бы взять Влacть в свои руки и править всем миром.

Качество: WEB-DL 720p
Формат: MKV
Видео кодек: H.264
Аудио кодек: AC3

Видео: MPEG-4 AVC, ~ 3961 Кбит/с, 1280x720
Аудио#1: RU: (AC3, 2 ch, 384 Кбит/с)
Аудио#2: EN: (AC3, 6 ch, 384 Кбит/с)


скриншот   скриншот   скриншот   скриншот  

Общее
Уникальный идентификатор : 243925388867985392239610788320072285071 (0xB782523119BFA275A491F0650F39BB8F)
Полное имя : C:The Last Ship - Последний корабль. Сезон 2. LostFilm. 720p\The.Last.Ship.S02E01.720p.Rus.Eng.LostFilm.mkv
Формат : Matroska
Версия формата : Version 4 / Version 2
Размер файла : 1,41 Гбайт
Продолжительность : 41 м. 51 с.
Общий поток : 4825 Кбит/сек
Дата кодирования : UTC 2015-06-25 07:06:02
Программа кодирования : mkvmerge v6.9.1 ('Blue Panther') 64bit built on Apr 18 2014 18:23:38
Библиотека кодирования : libebml v1.3.0 + libmatroska v1.4.1

Видео
Идентификатор : 1
Формат : AVC
Формат/Информация : Advanced Video Codec
Профиль формата : High@L3.1
Параметр CABAC формата : Нет
Параметр ReFrames формата : 2 кадра
Идентификатор кодека : V_MPEG4/ISO/AVC
Продолжительность : 41 м. 51 с.
Битрейт : 3961 Кбит/сек
Ширина : 1280 пикселей
Высота : 720 пикселей
Соотношение сторон : 16:9
Режим частоты кадров : Постоянный
Частота кадров : 23,976 (24000/1001) кадра/сек
Цветовое пространство : YUV
Субдискретизация насыщенности : 4:2:0
Битовая глубина : 8 бит
Тип развёртки : Прогрессивная
Бит/(Пиксели*Кадры) : 0.179
Размер потока : 1,16 Гбайт (82%)
Язык : English
Default : Да
Forced : Нет
Цветовой диапазон : Limited
Основные цвета : BT.709
Характеристики трансфера : BT.709
Коэффициенты матрицы : BT.709

Аудио #1
Идентификатор : 2
Формат : AC-3
Формат/Информация : Audio Coding 3
Расширение режима : CM (complete main)
Параметр Endianness формата : Big
Идентификатор кодека : A_AC3
Продолжительность : 41 м. 51 с.
Вид битрейта : Постоянный
Битрейт : 384 Кбит/сек
Каналы : 2 канала
Расположение каналов : Front: L R
Частота : 48,0 КГц
Частота кадров : 31,250 кадров/сек (1536 spf)
Метод сжатия : С потерями
Размер потока : 115 Мбайт (8%)
Язык : Russian
Default : Да
Forced : Нет

Аудио #2
Идентификатор : 3
Формат : AC-3
Формат/Информация : Audio Coding 3
Расширение режима : CM (complete main)
Параметр Endianness формата : Big
Идентификатор кодека : A_AC3
Продолжительность : 41 м. 51 с.
Вид битрейта : Постоянный
Битрейт : 384 Кбит/сек
Каналы : 6 каналов
Расположение каналов : Front: L C R, Side: L R, LFE
Частота : 48,0 КГц
Частота кадров : 31,250 кадров/сек (1536 spf)
Метод сжатия : С потерями
Размер потока : 115 Мбайт (8%)
Язык : English
Default : Нет
Forced : Нет

pb.wtf



Скачать Последний корабль через торрент http://i70.fastpic.ru/big/2015/0730/0d/bc70c71394f0f880a3e3bde25ea4c00d.jpg Скачать фильм Последний корабль через торрент бесплантно в хорошем качестве Описание: В сюжет данного телесериала легла одноименная книга Уильяма Бринкли. Все начинается с того момента, когда экипаж одного из ... 10 10 3
Info! Серебряная раздача, засчитывается только 50% скачанного.
Торрент: Зарегистрирован [2017-09-19 17:46] · скачан: 46 раз
Статус: √ проверено
Размер: 18.28 GB
Как cкачать? Как скачать Последний корабль через торрент | qTorrent

% Раздел Тема Автор DL S | L
Зарубежные сериалы [ 7.6 GB ] Последний корабль / The Last Ship / Сезон: 2 / Серии 1-13 из 13 [2015 WEB-DLRip] MVO [LostFilm] GEKADOL Скачать
1 | 0
Зарубежные сериалы [ 23.04 GB ] Последний корабль / The Last Ship / Сезон: 2 / Серии 1-13 из 13 [2015 WEB-DLRip 1080р] MVO [LostFilm] GEKADOL Скачать
1 | 0
Зарубежные сериалы [ 1004 MB ] Последний корабль / The Last Ship / Сезон: 2 / Серии 1-2 из 13 [2015 HDTVRip) VO [Kerob] GEKADOL Скачать
1 | 0

28-11-2019 20:33  

Отключить всю рекламу на сайте

    Дорогой пользователь! Огромная просьба, поблагодарите релизера, оцените раздачу и оставьте свои комментарий, если Вы скачали Последний корабль через торрент бесплатно! Внесите свою лепту в развитие PiratBit!
    Комментировать посты могут только пользователи прошедшие не сложную регистрацию
    Показать сообщения:    

    Последний корабль через торрент
    Скачать бесплатно Последний корабль
    Последний корабль скачать торрент
    Последний корабль смотреть онлайн
    Cкачать фильм Последний корабль бесплатно
    Последний корабль скачать торрент в хорошем качестве
    Последний корабль смотреть онлайн бесплатно в хорошем качестве


    Вы не можете начинать темы
    Вы не можете отвечать на сообщения
    Вы не можете редактировать свои сообщения
    Вы не можете удалять свои сообщения
    Вы не можете голосовать в опросах
    Вы не можете прикреплять файлы к сообщениям
    Вы можете скачивать файлы