новый адрес пиратбит piratbit
Мега распродажа FORZA HORIZON 4 ULTIMATE+ВСЕ DLC+ОНЛАЙН всего за 499р. 349 руб. (супер цена). Внимание количество ограничено!!!

iTunes

1+1

iTunes

мы

iTunes

1

iTunes

Чернобыль

iTunes

Ральф против интернета

Лицензия

ПШазам

Лицензия

Игра престолов

Лицензия

30
pack

ВАЖНО

!!Акция!!

Alien_RageХит недели

RePack

Resident Evil 21

ИГРА 18+

pack

RePack

Metro:Exodus

!!Акция!!

Alien_Rage

RePack

fifa19

RePack

Assassins Creed: Odyssey

RePack

NEED FOR SPEED™ PAYBACK

3 сезон

9 сезон

Бесстыжие 9 сезон

Все сериалы

все сериалы на PB.wtf

RePack

FAR CRY 5
Ребята, катастрофически не хватает 1900р. для оплаты серверов за Октябрь (всвязи с блокировками трафик упал в 3 раза), 1-2р., выручайте.
  

Сашко (Евгений Брюнчугин) [1958, СССР, драма, VHSRip от AVP Studio] pb.wtf

Сашко через торрент pb.wtf

Размер: 745 MB | Добавлен: 2 года 1 мес. назад | Торрент скачан:18 раз
Скачать  

20-09-2017 08:42 Сашко Скачать торрент  

Сашко
Страна: СССР
Производство: К/ст им. Довженко

Жанр: драма
Год выпуска: 1958
Продолжительность: 01:12:34

Перевод: Не требуется
Cубтитры: нет
Оригинальная аудиодорожка: русский

Режиссер: Евгений Брюнчугин

В ролях:
Лёня Бабич, Лариса Хоролец, Владимир Данилин, Николай Козленко, Виктор Зубарев, Неонила Гнеповская, Анна Кушниренко, Виктор Мягкий, Алексей Бунин, Полина Нятко, Михаил Рост...
Об актёрах подробней

Описание:
Все считали Сашко озорником, а тот мечтал о подвиге. Однажды мальчугана пригласили сниматься в кино. Вместе со всей съемочной группой Сашко поехал в первую свою экспедицию. Но началась война. Раненого Сашко спасла и выходила крестьянка, а когда он поправился, снарядила его в далекий путь — домой, в Киев. Он добрался до родного города, где уже хозяйничали фашисты, и вскоре, связавшись с партизанами, Сашко начал им помогать.

Источник: VHS
Качество видео: VHSRip
Формат видео: AVI

Видео: 704x528 (4:3), 25 fps, XviD ~ 1234 kbps avg, 0.133 bit/pixel
Аудио: 48 kHz, Dolby Digital AC3 2.0, 192 kbps

Раздача от:
Общее
Полное имя : Sashko.1958.VHSRip_[New-team]_by_AVP_Studio.avi
Формат : AVI
Формат/Информация : Audio Video Interleave
Размер файла : 745 Мбайт
Продолжительность : 1 ч. 12 м.
Общий поток : 1436 Кбит/сек
Программа кодирования : VirtualDubMod 1.5.10.3 | www.virtualdub-fr.org || (build 2550/release)
Библиотека кодирования : VirtualDubMod build 2550/release

Видео
Идентификатор : 0
Формат : MPEG-4 Visual
Профиль формата : Advanced Simple@L5
Параметр BVOP формата : 1
Параметр QPel формата : Нет
Параметр GMC формата : Без точки перехода
Параметр матрицы формата : Выборочная
Идентификатор кодека : XVID
Идентификатор кодека/Подсказка : XviD
Продолжительность : 1 ч. 12 м.
Битрейт : 1234 Кбит/сек
Ширина : 704 пикселя
Высота : 528 пикселей
Соотношение сторон : 4:3
Частота кадров : 25,000 кадров/сек
Цветовое пространство : YUV
Субдискретизация насыщенности : 4:2:0
Битовая глубина : 8 бит
Тип развёртки : Прогрессивная
Метод сжатия : С потерями
Бит/(Пиксели*Кадры) : 0.133
Размер потока : 641 Мбайт (86%)
Библиотека кодирования : XviD 73

Аудио
Идентификатор : 1
Формат : AC-3
Формат/Информация : Audio Coding 3
Параметр Endianness формата : Big
Идентификатор кодека : 2000
Продолжительность : 1 ч. 12 м.
Вид битрейта : Постоянный
Битрейт : 192 Кбит/сек
Каналы : 2 канала
Расположение каналов : Front: L R
Частота : 48,0 КГц
Частота кадров : 31,250 кадров/сек (1536 SPF)
Битовая глубина : 16 бит
Метод сжатия : С потерями
Размер потока : 99,7 Мбайт (13%)
Выравнивание : Разделение по промежуткам
Продолжительность промежутка : 40 мс. (1,00 видеокадр)
Время предзагрузки промежутка : 500 мс
pb.wtf



Скачать Сашко через торрент http://s011.radikal.ru/i315/1709/5f/9a2ae5a4c77a.png Скачать фильм Сашко через торрент бесплантно в хорошем качестве Описание:Все считали Сашко озорником, а тот мечтал о подвиге. Однажды мальчугана пригласили сниматься в кино. Вместе со всей съемочной ... 10 10 1
Info! Золотая раздача, скачанное не засчитывается.
Торрент: Зарегистрирован [2017-09-20 08:42] · скачан: 18 раз
Статус: √ проверено
Размер: 745 MB
Как cкачать? Как скачать Сашко через торрент | qTorrent

% Раздел Тема Автор DL S | L
Кино СССР [ 1.09 GB ] Сашко [1958 СССР VHSRip-AVC от AVP Studio] AVP Studio Скачать
1 | 0
HD ролики [ 712 MB ] [NylonSpunkJunkies] Сашку хорошенько трахнули в попку [2014 Anal All Sex SiteRip] HD 1080p windows8 Скачать
1 | 0
Русские порно ролики [ 226 MB ] Милая русская девушка Сашка Блонд / Sasha Blonde "cumshot compilation" [2013 cumshot compilation SATRip] Pir@tya2010 Скачать
1 | 0
Русские порно ролики [ 528 MB ] Миниатюрной Сашке загнали в тощую попу / Sasha Rose [2012 All Sex Oral Anal Teen SATRip] jokes Скачать
1 | 0
Наши сериалы [ 1.56 GB ] Сашка любовь моя 1-4 серии [2007 Мело] aspace Скачать
1 | 0


>> Регистрируемся здесь <<






Отзывы и комментарии о схеме читаем и пишем здесь: ---> Отзывы и комментарии о схеме

Новые благодарочки в телеграм довольных пользователей:
скриншот   скриншот   скриншот   скриншот   скриншот
    Дорогой пользователь! Огромная просьба, поблагодарите релизера, оцените раздачу и оставьте свои комментарий, если Вы скачали Сашко через торрент бесплатно! Внесите свою лепту в развитие PiratBit!
    Комментировать посты могут только пользователи прошедшие не сложную регистрацию
    Показать сообщения:    

    Сашко через торрент
    Скачать бесплатно Сашко
    Сашко скачать торрент
    Сашко смотреть онлайн
    Cкачать фильм Сашко бесплатно
    Сашко скачать торрент в хорошем качестве
    Сашко смотреть онлайн бесплатно в хорошем качестве


    Вы не можете начинать темы
    Вы не можете отвечать на сообщения
    Вы не можете редактировать свои сообщения
    Вы не можете удалять свои сообщения
    Вы не можете голосовать в опросах
    Вы не можете прикреплять файлы к сообщениям
    Вы можете скачивать файлы