Всегда рабочее зеркало без VPN и Proxy просто перед .vidak.icu напиши любое слово или цифру, Пример http://zp5p.vidak.icu

MVO

Лицензия

1 сезон

1

1 сезон

iTunes

1 сезон

13

1 сезон

Deluxe

pack

Рекомендуем

Repack

30

ВАЖНО

RePack

MK11

RePack

jed

RePack

fifa19

RePack

RDR2

RePack

NEED FOR SPEED™ PAYBACK

Кинопоиск HD

6 сезон

 Острые козырьки 6 сезон

Все сериалы

все сериалы на PB.wtf

RePack

FAR CRY 5
  
Magnet ссылка

Гадкий Я 3 / Despicable Me 3 (Эрик Гуильон, Кайл Балда, Пьер Коффан) [2017 г., Мультфильм, фантастика, боевик, комедия, приключения, семейный, BDRip, Дубляж iTunes] pb.wtf

Гадкий Я 3 через торрент pb.wtf

Размер: 1.42 GB | Добавлен: 4 года 9 мес. назад | Торрент скачан:1313 раз
Смотреть онлайн Гадкий Я 3 | Скачать    Ребята, помогите собрать деньги на оплату серверов!!!

21-09-2017 04:37 Гадкий Я 3 Скачать торрент  

Гадкий Я 3 / Despicable Me 3
Год выпуска: 2017
Страна: США
Жанр: Мультфильм, фантастика, боевик, комедия, приключения, семейный
Продолжительность: 01:29:40
Перевод: Дубляж iTunes
Субтитры: Нет

Режиссер: Эрик Гуильон, Кайл Балда, Пьер Коффан

В ролях: Стив Карелл, Кристен Уиг, Трей Паркер, Миранда Косгров, Дэна Гайер, Пьер Коффан, Стив Кугэн, Джули Эндрюс, Дженни Слейт

Описание: Грядет третье пришествие. Многодетный суперагент, роковая красотка и бессмертные миньоны на подходе. Готовьтесь. Они будут править миром.

Качество: BDRip
Формат: AVI
Видео кодек: XviD
Аудио кодек: AC3
Видео: MPEG-4 XviD, (720x304),1875 Кбит/с, 23.976 кадра/сек
Аудио#1: AC3, 6 ch,384 kbps (Rus) 48.0 KHz дублированный (iTunes)
скриншот   скриншот   скриншот  

Тип потока: Видео
Длительность: 01:29:40
Кодек: MPEG-4 Visual
Кодек/профиль: Advanced [email protected]
Кодек/ID: XVID
Размеры изображения: 720 x 304 (2.35:1)
Частота кадров: 23.976 fps
Размер потока: 1.17 GiB (83%)
Битрейт: 1 875 Kbps
Метод сжатия: Lossy
Библиотека кодирования: XviD 73
Цветовое пространство: YUV
Тип развёртки: Progressive
Колориметрия: 4:2:0
Глубина: 8 bits
:
Тип потока: Звук #1
Длительность: 01:29:40.422
Кодек: AC-3
Кодек/описание: Audio Coding 3
Кодек/ID: 2000
Частота дискретизации: 48.0 KHz
Каналов: 6 channels
Битрейт: 384 Kbps
Битрейт/тип: Constant
Размер потока: 246 MiB (17%)
Глубина: 16 bits
Метод сжатия: Lossy

pb.wtf



Скачать Гадкий Я 3 через торрент https://pic1.kartinco.top/images/11/m1iyo.jpg Скачать, смотреть онлайн Гадкий Я 3 бесплантно в хорошем качестве Описание: Грядет третье пришествие. Многодетный суперагент, роковая красотка и бессмертные миньоны на подходе. Готовьтесь. Они будут ... 9.5 10 22
Info! Золотая раздача, скачанное не засчитывается.
Торрент: Зарегистрирован [2017-09-21 04:37] · скачан: 1 313 раз
Статус: √ проверено
Размер: 1.42 GB
Как cкачать? Как скачать Гадкий Я 3 через торрент | UTorrent

% Раздел Тема Автор DL S | L
Зарубежные Мультфильмы (BDRip 1080p, 720p, Blu-ray, BD-Remux) [ 7.25 GB ] Гадкий я 3 / Despicable Me 3 [2017 Мультфильм BDRip 1080p] sheker187 Скачать
3 | 0
Мультфильмы (48-60 fps) [ 3.2 GB ] Гадкий я 3 / Despicable Me 3 [2017 Мультфильм BDRip 720p / 60 FPS ] от R.G. HD-Films slaventi-69 Скачать
4 | 0
Ultra HD (UHD: 2K, 4K, 8K) [ 14.17 GB ] Гадкий Я 3 / Despicable Me 3 [2017 Мультфильм UHD WEBRip 2160p ] DUB [] bober100 Скачать
1 | 0
Зарубежные Мультфильмы (BDRip 1080p, 720p, Blu-ray, BD-Remux) [ 3.38 GB ] Гадкий Я 3 / Despicable Me 3 [2017 мультфильм BDRip 1080p HEVC ] Мичман37 Скачать
2 | 0
Зарубежные Мультфильмы (BDRip 1080p, 720p, Blu-ray, BD-Remux) [ 36.04 GB ] Гадкий Я 3 / Despicable Me 3 [2017 Мультфильм Blu-ray EUR 1080p] [2D 3D] DUB [] bober100 Скачать
1 | 0
Иностранные мультфильмы [ 2.1 GB ] Гадкий я 3 / Despicable Me 3 [2017 мультфильм BDRip-AVC] sokol_ok Скачать
2 | 0
3D Мультфильмы [ 11.26 GB ] Гадкий я 3 в 3Д / Despicable Me 3 3D [2017 Мультфильм Приключен BDrip 1080p] OverUnder / Вертикальная стереопара serega768 Скачать
1 | 0

28-11-2019 20:33  

Отключить всю рекламу на сайте

    Дорогой пользователь! Огромная просьба, поблагодарите релизера, оцените раздачу и оставьте свои комментарий, если Вы скачали Гадкий Я 3 через торрент бесплатно!
    Комментировать посты могут только пользователи прошедшие не сложную регистрацию
    Показать сообщения:    

    Гадкий Я 3 через торрент
    Скачать бесплатно Гадкий Я 3
    Гадкий Я 3 скачать торрент
    Гадкий Я 3 смотреть онлайн
    Cкачать фильм Гадкий Я 3 бесплатно
    Гадкий Я 3 скачать торрент в хорошем качестве
    Гадкий Я 3 смотреть онлайн бесплатно в хорошем качестве


    Вы не можете начинать темы
    Вы не можете отвечать на сообщения
    Вы не можете редактировать свои сообщения
    Вы не можете удалять свои сообщения
    Вы не можете голосовать в опросах
    Вы не можете прикреплять файлы к сообщениям
    Вы можете скачивать файлы