Ссылка на приватное зеркало всего за 1$. Внимание количество ограничено!!!

iTunes

iTunes

iTunes

1

iTunes

iTunes

iTunes

WEBRip

iTunes

30
pack

$ от Little Big

ВАЖНО

!!Акция!!

Alien_RageХит недели

RePack

Resident Evil 21

ИГРА 18+

pack

RePack

jed

!!Акция!!

Alien_Rage

RePack

fifa19

RePack

Assassins Creed: Odyssey

RePack

NEED FOR SPEED™ PAYBACK

4 сезон

9 сезон

Бесстыжие 9 сезон

Все сериалы

все сериалы на PB.wtf

RePack

FAR CRY 5
  

Кинофестиваль (Василий Пичул) [2006 г., Мюзикл, комедия, DVDRip-AVC] от ExKinoRay pb.wtf

Кинофестиваль через торрент pb.wtf

Размер: 2.12 GB | Добавлен: 2 года 10 мес. назад | Торрент скачан:4 раза
Скачать  

21-09-2017 16:15 Кинофестиваль Скачать торрент  

Кинофестиваль
Год выпуска: 2006
Страна: Россия
Жанр: Мюзикл, комедия
Продолжительность: 01:39:20

Режиссер: Василий Пичул

rating

В ролях: Нина Русланова, Анна Азарова, Елена Доронина, Юрий Колокольников, Виктор Проскурин, Алика Смехова, Даниил Спиваковский, Игорь Верник, Олег Штефанко,Василиса Воронина

Описание: Московский международный кинофестиваль. В столицу съезжаются зарубежные гости. Среди них звезда Голливуда Ричард Дирк. Зритель становится свидетелем красочных фестивальных торжеств, ярких любовных историй, происков спецслужб в отношении знаменитого актера, а также криминальной истории и кулуарных интриг в службе переводчиков фестиваля.

Качество: DVDRip-AVC
Формат: MKV
Видео кодек: MPEG4
Аудио кодек: AC3
Видео: MPEG-4 AVC, 2600 Кбит/с, 720x430@768x430, 25 кадров/сек
Аудио#1: AC3, 6 ch, 448 Кбит/с, 48 Кгц
Релиз от:




raw [info]: 720x430p 16:15 @ 25/1 fps (cfr)
x264 [info]: using SAR=16/15
x264 [info]: using cpu capabilities: MMX2 SSE2Fast LZCNT
x264 [info]: profile High, level 4.1
x264 [info]: frame I:900 Avg QP:15.88 size: 55308
x264 [info]: frame P:35882 Avg QP:18.53 size: 24095
x264 [info]: frame B:112240 Avg QP:20.32 size: 9112
x264 [info]: consecutive B-frames: 2.6% 3.6% 15.2% 21.2% 16.0% 36.2% 3.5% 0.6% 0.4% 0.1% 0.1% 0.2% 0.1% 0.1% 0.1% 0.1% 0.1%
-----
Общее
Уникальный идентификатор : 207683316090334806304417259575273263256 (0x9C3E5A0BAF6736B9AF121BE7CBCB1098)
Полное имя : D:\Relizes\Kinofestival.2006.DVDRip-AVC.ExKinoRay.mkv
Формат : Matroska
Версия формата : Version 2
Размер файла : 2,12 Гбайт
Продолжительность : 1 ч. 39 м.
Общий поток : 3050 Кбит/сек
Дата кодирования : UTC 2017-09-21 12:42:37
Программа кодирования : mkvmerge v7.8.0 ('River Man') 32bit built on Apr 3 2015 12:11:22
Библиотека кодирования : libebml v1.3.1 + libmatroska v1.4.2

Видео
Идентификатор : 1
Формат : AVC
Формат/Информация : Advanced Video Codec
Профиль формата : High@L4.1
Параметр CABAC формата : Да
Параметр ReFrames формата : 14 кадров
Идентификатор кодека : V_MPEG4/ISO/AVC
Продолжительность : 1 ч. 39 м.
Битрейт : 2600 Кбит/сек
Ширина : 720 пикселей
Высота : 430 пикселей
Соотношение сторон : 16:9
Режим частоты кадров : Постоянный
Частота кадров : 25,000 кадров/сек
Цветовое пространство : YUV
Субдискретизация насыщенности : 4:2:0
Битовая глубина : 8 бит
Тип развёртки : Прогрессивная
Бит/(Пиксели*Кадры) : 0.336
Размер потока : 1,76 Гбайт (83%)
Библиотека кодирования : x264 core 148 r2638 7599210
Настройки программы : cabac=1 / ref=14 / deblock=1:-2:-2 / analyse=0x3:0x133 / me=umh / subme=10 / psy=1 / psy_rd=1.05:0.15 / mixed_ref=1 / me_range=32 / chroma_me=1 / trellis=2 / 8x8dct=1 / cqm=0 / deadzone=21,11 / fast_pskip=0 / chroma_qp_offset=-3 / threads=4 / lookahead_threads=1 / sliced_threads=0 / nr=0 / decimate=0 / interlaced=0 / bluray_compat=0 / constrained_intra=0 / bframes=16 / b_pyramid=2 / b_adapt=2 / b_bias=0 / direct=3 / weightb=1 / open_gop=0 / weightp=2 / keyint=250 / keyint_min=25 / scenecut=40 / intra_refresh=0 / rc=2pass / mbtree=0 / bitrate=2600 / ratetol=1.0 / qcomp=0.60 / qpmin=0 / qpmax=69 / qpstep=4 / cplxblur=20.0 / qblur=0.5 / ip_ratio=1.40 / pb_ratio=1.30 /

aq=1:1.00
Язык : English
Default : Да
Forced : Нет
Цветовой диапазон : Limited
Основные цвета : BT.601 NTSC
Характеристики трансфера : BT.601
Коэффициенты матрицы : BT.601

Аудио
Идентификатор : 2
Формат : AC-3
Формат/Информация : Audio Coding 3
Расширение режима : CM (complete main)
Параметр Endianness формата : Big
Идентификатор кодека : A_AC3
Продолжительность : 1 ч. 39 м.
Вид битрейта : Постоянный
Битрейт : 448 Кбит/сек
Каналы : 6 каналов
Расположение каналов : Front: L C R, Side: L R, LFE
Частота : 48,0 КГц
Частота кадров : 31,250 кадров/сек (1536 spf)
Метод сжатия : С потерями
Размер потока : 318 Мбайт (15%)
Default : Да
Forced : Нет

pb.wtf



Скачать Кинофестиваль через торрент http://i91.fastpic.ru/big/2017/0921/93/e868c36a322ba89e74067cd858104793.jpg Скачать фильм Кинофестиваль через торрент бесплантно в хорошем качестве Описание: Московский международный кинофестиваль. В столицу съезжаются зарубежные гости. Среди них звезда Голливуда Ричард Дирк. Зритель ... 10 10 2
Info! Золотая раздача, скачанное не засчитывается.
Торрент: Зарегистрирован [2017-09-21 16:15] · скачан: 4 раз
Статус: √ проверено
Размер: 2.12 GB
Как cкачать? Как скачать Кинофестиваль через торрент | qTorrent

% Раздел Тема Автор DL S | L
Наши фильмы, до 2010 [ 1.37 GB ] Кинофестиваль [2006 Мюзикл DVDRip] от ExKinoRay dumbia Скачать
1 | 0

28-11-2019 20:33  

Отключить всю рекламу на сайте

21-09-2017 16:36 Кинофестиваль Скачать торрент  

Топик был перенесен из форума Оформление раздач (Кино, Видео и ТВ) в форум Наши фильмы, до 2010


-Lexx-pb.wtf



    Дорогой пользователь! Огромная просьба, поблагодарите релизера, оцените раздачу и оставьте свои комментарий, если Вы скачали Кинофестиваль через торрент бесплатно! Внесите свою лепту в развитие PiratBit!
    Комментировать посты могут только пользователи прошедшие не сложную регистрацию
    Показать сообщения:    

    Кинофестиваль через торрент
    Скачать бесплатно Кинофестиваль
    Кинофестиваль скачать торрент
    Кинофестиваль смотреть онлайн
    Cкачать фильм Кинофестиваль бесплатно
    Кинофестиваль скачать торрент в хорошем качестве
    Кинофестиваль смотреть онлайн бесплатно в хорошем качестве


    Вы не можете начинать темы
    Вы не можете отвечать на сообщения
    Вы не можете редактировать свои сообщения
    Вы не можете удалять свои сообщения
    Вы не можете голосовать в опросах
    Вы не можете прикреплять файлы к сообщениям
    Вы можете скачивать файлы