новый адрес
Мега распродажа FORZA HORIZON 4 ULTIMATE+ВСЕ DLC+ОНЛАЙН всего за 499р. 349 руб. (супер цена). Внимание количество ограничено!!!

iTunes

1+1

iTunes

мы

iTunes

1

iTunes

Чернобыль

iTunes

Ральф против интернета

Лицензия

ПШазам

Лицензия

Игра престолов

Лицензия

30
pack

ВАЖНО

!!Акция!!

Alien_RageХит недели

RePack

Resident Evil 21

ИГРА 18+

pack

RePack

Metro:Exodus

!!Акция!!

Alien_Rage

RePack

fifa19

RePack

Assassins Creed: Odyssey

RePack

NEED FOR SPEED™ PAYBACK

3 сезон

9 сезон

Бесстыжие 9 сезон

Все сериалы

все сериалы на PB.wtf

RePack

FAR CRY 5
Ребята, катастрофически не хватает 1900р. для оплаты серверов за Октябрь (всвязи с блокировками трафик упал в 3 раза), 1-2р., выручайте.
  

Чужой: Завет / Alien: Covenant (Ридли Скотт ) [2017, ужасы, фантастика, триллер, BDRip 1080p от potroks] DUB + MVO + AVO pb.wtf

Чужой: Завет через торрент pb.wtf

Раздают: 2 [ 0 KB/s ]
Размер: 10.79 GB | Добавлен: 2 года 1 мес. назад | Торрент скачан:360 раз
Скачать  

22-09-2017 08:27 Чужой: Завет Скачать торрент  

Чужой: Завет / Alien: Covenant

Год выпуска: 2017
Страна: США, Великобритания, Австралия, Новая Зеландия, Канада
Жанр: ужасы, фантастика, триллер
Продолжительность: 02:02:03
Перевод: Дубляж [Blu-ray EUR], Любительский [многоголосый], Авторский [одноголосый], Любительский [одноголосый]
Субтитры: русские (форс.), русские (х2), английские (Full + SDH + SDH-Colored)
Навигация по главам: есть
Режиссер: Ридли Скотт

В ролях:

Майкл Фассбендер (David / Walter), Кэтрин Уотерстон (Daniels), Билли Крудап (Oram), Дэнни МакБрайд (Tennessee), Демиан Бишир (Lope), Кармен Эджого (Karine), Джусси Смоллетт (Ricks), Калли Эрнандес (Upworth), Эми Саймец (Faris), Натаниель Дин (Hallett), Александр Инглэнд (Ankor), Бенжамин Ригби (Ledward)

Описание: Во время обследования удаленной планеты, расположенной на другой стороне галактики, экипаж колониального корабля «Завет» обнаруживает, что то, что они изначально приняли за неизведанный рай, на самом деле - тёмный и опасный мир. Его единственный житель - синтетический андроид Дэвид, оставшийся в живых после обреченной экспедиционной миссии «Прометей».



Качество: BDRip 1080p
Формат: MKV
Видео: AVC, 1920x800 (2.40:1), 9205 kbps, 23,976 fps
Аудио №1: AC3 / 5.1 / 48 kHz / 448 kbps | DUB - Blu-ray EUR
Аудио №2: AC3 / 5.1 / 48 kHz / 640 kbps | MVO - Paradox & Omskbird
Аудио №3: AC3 / 5.1 / 48 kHz / 640 kbps | AVO - Д.Есарев
Аудио №4: AC3 / 5.1 / 48 kHz / 640 kbps | AVO - Ю.Живов
Аудио №5: AC3 / 5.1 / 48 kHz / 448 kbps | VO - Solod
Аудио №6: AC3 / 5.1 / 48 kHz / 640 kbps | ENG
General
Unique ID : 220090256462299124040358701068967634142 (0xA593D76F173D8C11A07C799C7C7E64DE)
Complete name : D:\Chuzhoy.Zavet.2017.4xRus.Eng.BDRip.1080p.-HELLYWOOD.mkv
Format : Matroska
Format version : Version 4 / Version 2
File size : 10.8 GiB
Duration : 2 h 2 min
Overall bit rate : 12.7 Mb/s
Movie name : Alien: Covenant (2017)
Encoded date : UTC 2017-09-21 02:06:08
Writing application : mkvmerge v5.9.0 ('On The Loose') built on Dec 15 2012 16:39:58
Writing library : libebml v1.3.0 + libmatroska v1.4.0

Video
ID : 1
Format : AVC
Format/Info : Advanced Video Codec
Format profile : High@L4.1
Format settings, CABAC : Yes
Format settings, ReFrames : 5 frames
Codec ID : V_MPEG4/ISO/AVC
Duration : 2 h 2 min
Bit rate : 9 205 kb/s
Width : 1 920 pixels
Height : 800 pixels
Display aspect ratio : 2.40:1
Frame rate mode : Constant
Frame rate : 23.976 (24000/1001) FPS
Color space : YUV
Chroma subsampling : 4:2:0
Bit depth : 8 bits
Scan type : Progressive
Bits/(Pixel*Frame) : 0.250
Stream size : 7.63 GiB (71%)
Title : potroks
Writing library : x264 core 152 r2851M ba24899
Encoding settings : cabac=1 / ref=5 / deblock=1:-2:-2 / analyse=0x3:0x112 / me=umh / subme=11 / psy=1 / psy_rd=1.00:0.05 / mixed_ref=1 / me_range=48 / chroma_me=1 / trellis=2 / 8x8dct=1 / cqm=0 / deadzone=22,11 / fast_pskip=0 / chroma_qp_offset=-3 / threads=9 / lookahead_threads=2 / sliced_threads=0 / nr=0 / decimate=0 / interlaced=0 / bluray_compat=0 / constrained_intra=0 / bframes=11 / b_pyramid=2 / b_adapt=2 / b_bias=0 / direct=3 / weightb=1 / open_gop=0 / weightp=2 / keyint=240 / keyint_min=23 / scenecut=40 / intra_refresh=0 / rc_lookahead=0 / rc=2pass / mbtree=0 / bitrate=9205 / ratetol=1.0 / qcomp=0.70 / qpmin=0 / qpmax=69 / qpstep=4 / cplxblur=20.0 / qblur=0.5 / vbv_maxrate=62500 / vbv_bufsize=44642 / nal_hrd=none / filler=0 / ip_ratio=1.40 / pb_ratio=1.30 / aq=1:0.70
Language : English
Default : Yes
Forced : No

Audio #1
ID : 2
Format : AC-3
Format/Info : Audio Coding 3
Mode extension : CM (complete main)
Format settings, Endianness : Big
Codec ID : A_AC3
Duration : 2 h 2 min
Bit rate mode : Constant
Bit rate : 448 kb/s
Channel(s) : 6 channels
Channel positions : Front: L C R, Side: L R, LFE
Sampling rate : 48.0 kHz
Frame rate : 31.250 FPS (1536 spf)
Compression mode : Lossy
Stream size : 391 MiB (4%)
Title : Dub | DD 5.1 @ 448 kbps - Blu-ray EUR
Language : Russian
Default : Yes
Forced : No

Audio #2
ID : 3
Format : AC-3
Format/Info : Audio Coding 3
Mode extension : CM (complete main)
Format settings, Endianness : Big
Codec ID : A_AC3
Duration : 2 h 2 min
Bit rate mode : Constant
Bit rate : 640 kb/s
Channel(s) : 6 channels
Channel positions : Front: L C R, Side: L R, LFE
Sampling rate : 48.0 kHz
Frame rate : 31.250 FPS (1536 spf)
Compression mode : Lossy
Stream size : 559 MiB (5%)
Title : MVO | DD 5.1 @ 640 kbps - Paradox&Omskbird
Language : Russian
Default : No
Forced : No

Audio #3
ID : 4
Format : AC-3
Format/Info : Audio Coding 3
Mode extension : CM (complete main)
Format settings, Endianness : Big
Codec ID : A_AC3
Duration : 2 h 2 min
Bit rate mode : Constant
Bit rate : 640 kb/s
Channel(s) : 6 channels
Channel positions : Front: L C R, Side: L R, LFE
Sampling rate : 48.0 kHz
Frame rate : 31.250 FPS (1536 spf)
Compression mode : Lossy
Stream size : 559 MiB (5%)
Title : AVO | DD 5.1 @ 640 kbps - A.Matveev [CENSORED]
Language : Russian
Default : No
Forced : No

Audio #4
ID : 5
Format : AC-3
Format/Info : Audio Coding 3
Mode extension : CM (complete main)
Format settings, Endianness : Big
Codec ID : A_AC3
Duration : 2 h 2 min
Bit rate mode : Constant
Bit rate : 640 kb/s
Channel(s) : 6 channels
Channel positions : Front: L C R, Side: L R, LFE
Sampling rate : 48.0 kHz
Frame rate : 31.250 FPS (1536 spf)
Compression mode : Lossy
Stream size : 559 MiB (5%)
Title : AVO | DD 5.1 @ 640 kbps - Yu.Zhivov
Language : Russian
Default : No
Forced : No

Audio #5
ID : 6
Format : AC-3
Format/Info : Audio Coding 3
Mode extension : CM (complete main)
Format settings, Endianness : Big
Codec ID : A_AC3
Duration : 2 h 2 min
Bit rate mode : Constant
Bit rate : 448 kb/s
Channel(s) : 6 channels
Channel positions : Front: L C R, Side: L R, LFE
Sampling rate : 48.0 kHz
Frame rate : 31.250 FPS (1536 spf)
Compression mode : Lossy
Stream size : 391 MiB (4%)
Title : VO | DD 5.1 @ 448 kbps - Solod
Language : Russian
Default : No
Forced : No

Audio #6
ID : 7
Format : AC-3
Format/Info : Audio Coding 3
Mode extension : CM (complete main)
Format settings, Endianness : Big
Codec ID : A_AC3
Duration : 2 h 2 min
Bit rate mode : Constant
Bit rate : 640 kb/s
Channel(s) : 6 channels
Channel positions : Front: L C R, Side: L R, LFE
Sampling rate : 48.0 kHz
Frame rate : 31.250 FPS (1536 spf)
Compression mode : Lossy
Stream size : 559 MiB (5%)
Title : Original | DD 5.1 @ 640 kbps
Language : English
Default : No
Forced : No

Text #1
ID : 8
Format : UTF-8
Codec ID : S_TEXT/UTF8
Codec ID/Info : UTF-8 Plain Text
Title : Forced
Language : Russian
Default : No
Forced : No

Text #2
ID : 9
Format : UTF-8
Codec ID : S_TEXT/UTF8
Codec ID/Info : UTF-8 Plain Text
Title : Blu-ray CEE
Language : Russian
Default : No
Forced : No

Text #3
ID : 10
Format : UTF-8
Codec ID : S_TEXT/UTF8
Codec ID/Info : UTF-8 Plain Text
Title : A.Matveev [CENSORED]
Language : Russian
Default : No
Forced : No

Text #4
ID : 11
Format : UTF-8
Codec ID : S_TEXT/UTF8
Codec ID/Info : UTF-8 Plain Text
Title : Full
Language : English
Default : No
Forced : No

Text #5
ID : 12
Format : UTF-8
Codec ID : S_TEXT/UTF8
Codec ID/Info : UTF-8 Plain Text
Title : SDH
Language : English
Default : No
Forced : No

Text #6
ID : 13
Format : UTF-8
Codec ID : S_TEXT/UTF8
Codec ID/Info : UTF-8 Plain Text
Title : SDH-Colored
Language : English
Default : No
Forced : No

Menu
00:00:00.000 : en:Chapter 01
00:04:47.662 : en:Chapter 02
00:13:07.495 : en:Chapter 03
00:18:11.924 : en:Chapter 04
00:22:46.448 : en:Chapter 05
00:27:51.169 : en:Chapter 06
00:33:12.907 : en:Chapter 07
00:37:18.736 : en:Chapter 08
00:42:19.912 : en:Chapter 09
00:47:43.694 : en:Chapter 10
00:52:04.371 : en:Chapter 11
00:55:56.269 : en:Chapter 12
01:00:17.447 : en:Chapter 13
01:06:20.643 : en:Chapter 14
01:11:25.030 : en:Chapter 15
01:16:35.882 : en:Chapter 16
01:21:10.031 : en:Chapter 17
01:28:18.793 : en:Chapter 18
01:31:21.559 : en:Chapter 19
01:34:52.436 : en:Chapter 20
01:39:23.666 : en:Chapter 21
01:43:35.876 : en:Chapter 22
01:50:49.309 : en:Chapter 23
01:55:27.754 : en:Chapter 24
pb.wtf



Скачать Чужой: Завет через торрент http://i2.imageban.ru/out/2017/09/22/c234a0e27882ac18a747f187acca7292.png Скачать фильм Чужой: Завет через торрент бесплантно в хорошем качестве Описание: Во время обследования удаленной планеты, расположенной на другой стороне галактики, экипаж колониального корабля «Завет» ... 10 10 6
Info! Золотая раздача, скачанное не засчитывается.
Торрент: Зарегистрирован [2017-09-22 08:27] · скачан: 360 раз
Статус: √ проверено
Размер: 10.79 GB
Как cкачать? Как скачать Чужой: Завет через торрент | qTorrent

% Раздел Тема Автор DL S | L
Фильмы 2017 [DVDrip, WEB-DLRip, HDrip] (DUB, MVO) [ 5.01 GB ] Чужой: Завет / Alien: Covenant [2017 WEB-DLRip-AVC Dub MVO 5 x AVO][Open Matte] от ExKinoRay morfyi Скачать
2 | 0
Фильмы (Blu-ray, BD-Remux, HDDVD) [ 45.91 GB ] Чужой: Завет / Alien: Covenant [2017 BD Remux 1080p] DUB + MVO + 4xAVO sheker187 Скачать
1 | 0
Фильмы [HD 720p, 1080p] (Хороший звук DUB, MVO) [ 17.08 GB ] Чужой: Завет / Alien: Covenant [2017 BDRip 1080p] DUB+MVO+AVO+VO [] bober100 Скачать
2 | 0
Фильмы (WEB-DL 720p, 1080p) [ 19 GB ] Чужой: Завет / Alien: Covenant [2017 WEB-DL 1080p] [Hybrid IMAX Edition] DUB + MVO + 3xAVO sheker187 Скачать
1 | 0
Фильмы 2017 [DVDrip, WEB-DLRip, HDrip] (DUB, MVO) [ 3.17 GB ] Чужой: Завет / Alien: Covenant [2017 BDRip-AVC] DUB+MVO+AVO [] bober100 Скачать
2 | 1


>> Регистрируемся здесь <<






Отзывы и комментарии о схеме читаем и пишем здесь: ---> Отзывы и комментарии о схеме

Новые благодарочки в телеграм довольных пользователей:
скриншот   скриншот   скриншот   скриншот   скриншот
    Дорогой пользователь! Огромная просьба, поблагодарите релизера, оцените раздачу и оставьте свои комментарий, если Вы скачали Чужой: Завет через торрент бесплатно! Внесите свою лепту в развитие PiratBit!
    Комментировать посты могут только пользователи прошедшие не сложную регистрацию
    Показать сообщения:    

    Чужой: Завет через торрент
    Скачать бесплатно Чужой: Завет
    Чужой: Завет скачать торрент
    Чужой: Завет смотреть онлайн
    Cкачать фильм Чужой: Завет бесплатно
    Чужой: Завет скачать торрент в хорошем качестве
    Чужой: Завет смотреть онлайн бесплатно в хорошем качестве


    Вы не можете начинать темы
    Вы не можете отвечать на сообщения
    Вы не можете редактировать свои сообщения
    Вы не можете удалять свои сообщения
    Вы не можете голосовать в опросах
    Вы не можете прикреплять файлы к сообщениям
    Вы можете скачивать файлы