Ссылка на приватное зеркало нашего сайта всего за 1$. Внимание количество ограничено!!!

2 сезон

iTunes

1 сезон

1

2 сезон

2 сезон

iTunes

1 сезон

RePack

30

Новинка

ВАЖНО

ИГРА 18+

pack

RePack

MK11
pack

Забери бонус

RePack

jed

!!Акция!!

Alien_Rage

RePack

fifa19

RePack

Assassins Creed: Odyssey

RePack

NEED FOR SPEED™ PAYBACK

4 сезон

9 сезон

Бесстыжие 9 сезон

Все сериалы

все сериалы на PB.wtf

RePack

FAR CRY 5
  

Реллик / Rellik / Сезон: 1 / Серии 1-6 из 6 (Сэм Миллер) [2017, криминал, WEBRip 720p] [MVO] (Good People) pb.wtf

Реллик через торрент pb.wtf

Размер: 13.66 GB | Добавлен: 3 года назад | Торрент скачан:22 раза
Скачать  

22-09-2017 14:55 Реллик Скачать торрент  

Реллик / Rellik Год выпуска: 2017
Страна: Великобритания
Жанр: Детектив, триллер
Продолжительность: ~00:45:00
Перевод: Профессиональный (многоголосый закадровый) Студия Good People
Субтитры: английские

Режиссёр: Сэм Миллер, Ханс Херботс

В ролях: Рис Ричи, Джоди Бальфур, Киран Бью, Питер Ко, Ричард Дормер, Александр Джиллисон, Тунсэй Гюнс и другие

Описание: История серийного убийцы, рассказанная задом наперед. Сериал начинается с момента, когда подозреваемый уже пойман, и действие разворачивается вспять, приводя к самим преступлениям и постепенно раскрывая личность настоящего убийцы. В центре расследования стоит одержимый детектив, чье лицо было обезображено кислотой. Чем дальше история заходит в прошлое, тем больше ответов появляется на главный вопрос: «Что движет нами и превращает в тех, кто мы есть?»

Сэмпл

Качество: WEBRip 720p
Формат: MKV
Видео кодек: AVC
Аудио кодек: AC3, E-AC3
Видео: H264, 1280x720 (16:9), 23.976 fps, ~4174kbps, ~0.181 bit/pixel
Аудио 1: Dolby AC3 48000Hz 5.1 640 Kbps - MVO
Аудио 2: Dolby E-AC3 48000Hz 5.1 640 Kbps - ENG
General
Unique ID                      : 189911652287430510806143707306628060471 (0x8EDFA75EF7BA5E8C84174A48C0C99537)
Complete name                  : Rellik.S01E01.720p.AMZN.WEBRip.DDP5.1.x264-GoodPeople.mkv
Format                         : Matroska
Format version                 : Version 2
File size                      : 2.20 GiB
Duration                       : 56 min 43 s
Overall bit rate               : 5 564 kb/s
Encoded date                   : UTC 2017-09-21 19:57:45
Writing application            : mkvmerge v5.4.0 ('Piper') built on Mar 10 2012 13:34:39
Writing library                : libebml v1.2.3 + libmatroska v1.3.0

Video
ID                             : 1
Format                         : AVC
Format/Info                    : Advanced Video Codec
Format profile                 : High@L4.1
Format settings, CABAC         : Yes
Format settings, RefFrames     : 9 frames
Codec ID                       : V_MPEG4/ISO/AVC
Duration                       : 56 min 43 s
Bit rate                       : 4 174 kb/s
Width                          : 1 280 pixels
Height                         : 720 pixels
Display aspect ratio           : 16:9
Frame rate mode                : Constant
Frame rate                     : 25.000 FPS
Color space                    : YUV
Chroma subsampling             : 4:2:0
Bit depth                      : 8 bits
Scan type                      : Progressive
Bits/(Pixel*Frame)             : 0.181
Stream size                    : 1.65 GiB (75%)
Writing library                : x264 core 148 r2638 7599210
Encoding settings              : cabac=1 / ref=9 / deblock=1:-3:-3 / analyse=0x3:0x133 / me=umh / subme=10 / psy=1 / psy_rd=1.00:0.00 / mixed_ref=1 / me_range=48 / chroma_me=1 / trellis=2 / 8x8dct=1 / cqm=0 / deadzone=21,11 / fast_pskip=0 / chroma_qp_offset=-2 / threads=12 / lookahead_threads=2 / sliced_threads=0 / nr=0 / decimate=0 / interlaced=0 / bluray_compat=0 / constrained_intra=0 / bframes=9 / b_pyramid=0 / b_adapt=2 / b_bias=0 / direct=3 / weightb=1 / open_gop=0 / weightp=2 / keyint=250 / keyint_min=25 / scenecut=40 / intra_refresh=0 / rc=crf / mbtree=0 / crf=17.0 / qcomp=0.60 / qpmin=10 / qpmax=51 / qpstep=4 / ip_ratio=1.40 / pb_ratio=1.30 / aq=3:0.70
Default                        : Yes
Forced                         : No
Statistics Tags Issue          : mkvmerge v10.0.0 ('To Drown In You') 64bit 2017-09-12 00:46:50 / mkvmerge v5.4.0 ('Piper') built on Mar 10 2012 13:34:39 2017-09-21 19:57:45
FromStats_BitRate              : 4282126
FromStats_Duration             : 00:56:43.080000000
FromStats_FrameCount           : 85077
FromStats_StreamSize           : 1821552250

Audio #1
ID                             : 2
Format                         : AC-3
Format/Info                    : Audio Coding 3
Format settings, Endianness    : Big
Codec ID                       : A_AC3
Duration                       : 56 min 43 s
Bit rate mode                  : Constant
Bit rate                       : 640 kb/s
Channel(s)                     : 6 channels
Channel positions              : Front: L C R, Side: L R, LFE
Sampling rate                  : 48.0 kHz
Frame rate                     : 31.250 FPS (1536 SPF)
Bit depth                      : 16 bits
Compression mode               : Lossy
Stream size                    : 260 MiB (12%)
Language                       : Russian
Service kind                   : Complete Main
Default                        : Yes
Forced                         : No

Audio #2
ID                             : 3
Format                         : E-AC-3
Format/Info                    : Enhanced Audio Coding 3
Format settings, Endianness    : Big
Codec ID                       : A_EAC3
Duration                       : 56 min 43 s
Bit rate mode                  : Constant
Bit rate                       : 640 kb/s
Channel(s)                     : 6 channels
Channel positions              : Front: L C R, Side: L R, LFE
Sampling rate                  : 48.0 kHz
Frame rate                     : 187.500 FPS (256 SPF)
Compression mode               : Lossy
Stream size                    : 260 MiB (12%)
Language                       : English
Service kind                   : Complete Main
Default                        : No
Forced                         : No
Statistics Tags Issue          : mkvmerge v10.0.0 ('To Drown In You') 64bit 2017-09-12 00:46:50 / mkvmerge v5.4.0 ('Piper') built on Mar 10 2012 13:34:39 2017-09-21 19:57:45
FromStats_BitRate              : 640000
FromStats_Duration             : 00:56:43.040000000
FromStats_FrameCount           : 106345
FromStats_StreamSize           : 272243200

Text
ID                             : 4
Format                         : UTF-8
Codec ID                       : S_TEXT/UTF8
Codec ID/Info                  : UTF-8 Plain Text
Language                       : English
Default                        : No
Forced                         : No
Statistics Tags Issue          : mkvmerge v10.0.0 ('To Drown In You') 64bit 2017-09-12 00:46:50 / mkvmerge v5.4.0 ('Piper') built on Mar 10 2012 13:34:39 2017-09-21 19:57:45
FromStats_BitRate              : 112
FromStats_Duration             : 00:55:37.760000000
FromStats_FrameCount           : 617
FromStats_StreamSize           : 46857
скриншот  скриншот  скриншот  
pb.wtf



Скачать Реллик через торрент http://i91.fastpic.ru/big/2017/0918/fd/f46a5abb112cfcfa51195665f5df35fd.jpg Скачать фильм Реллик через торрент бесплантно в хорошем качестве Описание: История серийного убийцы, рассказанная задом наперед. Сериал начинается с момента, когда подозреваемый уже пойман, и действие ... 5.8 10 4
Торрент: Зарегистрирован [2017-11-24 19:17] · скачан: 22 раз
Статус: √ проверено
Размер: 13.66 GB
Как cкачать? Как скачать Реллик через торрент | qTorrent

% Раздел Тема Автор DL S | L
Зарубежные сериалы [ 12.43 GB ] Реллик / Rellik / Сезон: 1 / Серии: 1-6 из 6 [2017 WEB-DL 720p] MVO [Jaskier] bober100 Скачать
1 | 0
Зарубежные сериалы [ 4.11 GB ] Реллик / Rellik / Сезон: 1 / Серии: 1-6 из 6 [2017 WEB-DLRip] MVO [Jaskier] bober100 Скачать
1 | 0
Зарубежные сериалы [ 4.01 GB ] Реллик / Rellik / Сезон: 1 / Серии 1-6 из 6 [2017 WEBRip] [MVO] killermax2013 Скачать
2 | 0
Зарубежные сериалы [ 12.43 GB ] Реллик / Rellik / Сезон: 1 / Серии 1-6 из 6 [2017 WEBRip 720p] MVO GEKADOL Скачать
1 | 0

28-11-2019 20:33  

Отключить всю рекламу на сайте

    Дорогой пользователь! Огромная просьба, поблагодарите релизера, оцените раздачу и оставьте свои комментарий, если Вы скачали Реллик через торрент бесплатно! Внесите свою лепту в развитие PiratBit!
    Комментировать посты могут только пользователи прошедшие не сложную регистрацию
    Показать сообщения:    

    Реллик через торрент
    Скачать бесплатно Реллик
    Реллик скачать торрент
    Реллик смотреть онлайн
    Cкачать фильм Реллик бесплатно
    Реллик скачать торрент в хорошем качестве
    Реллик смотреть онлайн бесплатно в хорошем качестве


    Вы не можете начинать темы
    Вы не можете отвечать на сообщения
    Вы не можете редактировать свои сообщения
    Вы не можете удалять свои сообщения
    Вы не можете голосовать в опросах
    Вы не можете прикреплять файлы к сообщениям
    Вы можете скачивать файлы