новый адрес
Мега распродажа FORZA HORIZON 4 ULTIMATE+ВСЕ DLC+ОНЛАЙН всего за 499р. 349 руб. (супер цена). Внимание количество ограничено!!!

iTunes

1+1

iTunes

мы

iTunes

1

iTunes

Чернобыль

iTunes

Ральф против интернета

Лицензия

ПШазам

Лицензия

Оно 2

Лицензия

30
pack

ВАЖНО

!!Акция!!

Alien_RageХит недели

RePack

Resident Evil 21

ИГРА 18+

pack

RePack

Metro:Exodus

!!Акция!!

Alien_Rage

RePack

fifa19

RePack

Assassins Creed: Odyssey

RePack

NEED FOR SPEED™ PAYBACK

3 сезон

9 сезон

Бесстыжие 9 сезон

Все сериалы

все сериалы на PB.wtf

RePack

FAR CRY 5
Ребята, катастрофически не хватает 1900р. для оплаты серверов за Октябрь (всвязи с блокировками трафик упал в 3 раза), 1-2р., выручайте.
  

Стучись в любую дверь (Мария Фёдорова) [1958, СССР, детский, драма, криминал, VHSRip от AVP Studio] pb.wtf

Стучись в любую дверь через торрент pb.wtf

Размер: 745 MB | Добавлен: 2 года 1 мес. назад | Торрент скачан:20 раз
Скачать  

23-09-2017 09:32 Стучись в любую дверь Скачать торрент  

Стучись в любую дверь
Страна: СССР
Производство: К/ст им. Горького

Жанр: детский, драма, криминал
Год выпуска: 1958
Продолжительность: 01:33:21

Перевод: Не требуется
Cубтитры: нет
Оригинальная аудиодорожка: русский

Режиссер: Мария Фёдорова

В ролях:
Вячеслав Подвиг, Александр Граве, Валентина Телегина, Михаил Ульянов, Юрий Медведев, Людмила Карауш, Володя Еронин, Виталий Коняев, Владимир Кулик, Валерий Носик...
Об актёрах подробней

Описание:
Подростки Андрей и Генка живут в одном дворе. Обоим живется несладко. После того, как умерла мать, отец Андрея бросил семью и мальчик остался с сестрой. У семнадцатилетнего Генки мать работает проводником и редко бывает дома. В его квартире живет шофер Михаил Прохоров (Михаил Ульянов). Он постоянно одалживал ребятам деньги, но однажды вынуждает их участвовать в ограблении квартиры. Так герои попадают к капитану милиции Сушкову (Александр Граве), который поможет им выпутаться из сложного для них дела.

Источник: VHS
Качество видео: VHSRip
Формат видео: AVI

Видео: 576x432 (4:3), 25 fps, XviD ~ 979 kbps avg, 0.157 bit/pixel
Аудио: 48 kHz, MP3 2.0, 128 kbps

Раздача от:
Общее
Полное имя : Stuchis.v.lyubuyu.dver.1958.VHSRip-745_[New-team]_by_AVP_Studio.avi
Формат : AVI
Формат/Информация : Audio Video Interleave
Размер файла : 745 Мбайт
Продолжительность : 1 ч. 33 м.
Общий поток : 1117 Кбит/сек
Программа кодирования : VirtualDubMod 1.5.10.3 | www.virtualdub-fr.org || (build 2550/release)
Библиотека кодирования : VirtualDubMod build 2550/release

Видео
Идентификатор : 0
Формат : MPEG-4 Visual
Профиль формата : Advanced Simple@L5
Параметр BVOP формата : 1
Параметр QPel формата : Нет
Параметр GMC формата : Без точки перехода
Параметр матрицы формата : Выборочная
Идентификатор кодека : XVID
Идентификатор кодека/Подсказка : XviD
Продолжительность : 1 ч. 33 м.
Битрейт : 979 Кбит/сек
Ширина : 576 пикселей
Высота : 432 пикселя
Соотношение сторон : 4:3
Частота кадров : 25,000 кадров/сек
Цветовое пространство : YUV
Субдискретизация насыщенности : 4:2:0
Битовая глубина : 8 бит
Тип развёртки : Прогрессивная
Метод сжатия : С потерями
Бит/(Пиксели*Кадры) : 0.157
Размер потока : 654 Мбайт (88%)
Библиотека кодирования : XviD 73

Аудио
Идентификатор : 1
Формат : MPEG Audio
Версия формата : Version 1
Профиль формата : Layer 3
Идентификатор кодека : 55
Идентификатор кодека/Подсказка : MP3
Продолжительность : 1 ч. 33 м.
Вид битрейта : Постоянный
Битрейт : 128 Кбит/сек
Каналы : 2 канала
Частота : 48,0 КГц
Метод сжатия : С потерями
Размер потока : 85,5 Мбайт (11%)
Выравнивание : Соединение по промежуткам
Продолжительность промежутка : 40 мс. (1,00 видеокадр)
Время предзагрузки промежутка : 504 мс.
Библиотека кодирования : LAME3.99r
Настройки программы : -m s -V 4 -q 2 -lowpass 17 -b 128
pb.wtf



Скачать Стучись в любую дверь через торрент http://s11.radikal.ru/i183/1709/47/4a5b272efb93.png Скачать фильм Стучись в любую дверь через торрент бесплантно в хорошем качестве Описание:Подростки Андрей и Генка живут в одном дворе. Обоим живется несладко. После того, как умерла мать, отец Андрея бросил семью и ... 5 10 1
Info! Золотая раздача, скачанное не засчитывается.
Торрент: Зарегистрирован [2017-09-23 09:32] · скачан: 20 раз
Статус: √ проверено
Размер: 745 MB
Как cкачать? Как скачать Стучись в любую дверь через торрент | qTorrent

% Раздел Тема Автор DL S | L
Кино СССР [ 1.09 GB ] Стучись в любую дверь [1958 СССР детский VHSRip-AVC от AVP Studio] AVP Studio Скачать
1 | 0
Кино СССР [ 1.09 GB ] Стучись в любую дверь [1958 СССР детский VHSRip от AVP Studio] AVP Studio Скачать
1 | 0


>> Регистрируемся здесь <<






Отзывы и комментарии о схеме читаем и пишем здесь: ---> Отзывы и комментарии о схеме

Новые благодарочки в телеграм довольных пользователей:
скриншот   скриншот   скриншот   скриншот   скриншот
    Дорогой пользователь! Огромная просьба, поблагодарите релизера, оцените раздачу и оставьте свои комментарий, если Вы скачали Стучись в любую дверь через торрент бесплатно! Внесите свою лепту в развитие PiratBit!
    Комментировать посты могут только пользователи прошедшие не сложную регистрацию
    Показать сообщения:    

    Стучись в любую дверь через торрент
    Скачать бесплатно Стучись в любую дверь
    Стучись в любую дверь скачать торрент
    Стучись в любую дверь смотреть онлайн
    Cкачать фильм Стучись в любую дверь бесплатно
    Стучись в любую дверь скачать торрент в хорошем качестве
    Стучись в любую дверь смотреть онлайн бесплатно в хорошем качестве


    Вы не можете начинать темы
    Вы не можете отвечать на сообщения
    Вы не можете редактировать свои сообщения
    Вы не можете удалять свои сообщения
    Вы не можете голосовать в опросах
    Вы не можете прикреплять файлы к сообщениям
    Вы можете скачивать файлы