2 сезон

iTunes

WEBRip

1

2 сезон

iTunes

1 сезон

1 сезон

RePack

30

Новинка

ВАЖНО

ИГРА 18+

pack

RePack

MK11
pack

Легкие деньги

RePack

jed

RePack

fifa19

RePack

RDR2

RePack

NEED FOR SPEED™ PAYBACK

4 сезон

9 сезон

Бесстыжие 9 сезон

Все сериалы

все сериалы на PB.wtf

RePack

FAR CRY 5

Anonymous, доброе утро, мы не успеваем собрать деньги на оплату серверов за февраль, помогите нам пожалуйста в это трудное время. В качестве благодарности мы отключим Вам всю рекламу на сайте (укажите свой ник в строку Ваше имя)!

×
  
Magnet ссылка

Чудо-женщина / Wonder Woman (Пэтти Дженкинс ) [2017, фантастика, фэнтези, боевик, BDRip 1080p от potroks] Dub [Лицензия] pb.wtf

Чудо-женщина через торрент pb.wtf

Размер: 10.25 GB | Добавлен: 3 года 5 мес. назад | Торрент скачан:581 раз
Скачать  

23-09-2017 14:22 Чудо-женщина Скачать торрент  

Чудо-женщина / Wonder Woman

Год выпуска: 2017
Страна: США, Китай, Гонконг, Великобритания, Италия, Канада, Новая Зеландия
Жанр: фантастика, фэнтези, боевик, приключения, военный
Продолжительность: 02:21:15
Перевод: Дубляж [Blu-ray EUR]
Субтитры: русские (полные + форс.), английские (Full + SDH + SDH-Colored)
Навигация по главам: есть

Режиссер: Пэтти Дженкинс
В ролях:

Галь Гадот (Wonder Woman), Крис Пайн (Steve Trevor), Конни Нильсен (Hippolyta), Робин Райт (Antiope), Дэнни Хьюстон (Ludendorff), Дэвид Тьюлис (Sir Patrick), Саид Тагмауи (Sameer), Юэн Бремнер (Charlie), Юджин «Храбрый камень» (The Chief), Люси Дэвис (Etta), Елена Анайя (Dr. Maru), Lilly Aspell (Young Diana (8))

Описание: Перед тем как стать Чудо-Женщиной, она была Дианой - принцессой амазонок, обученной быть непобедимой воительницей. И когда на берегах ограждённого от внешнего мира райского острова, который служил ей родиной, терпит крушение американский пилот и рассказывает о серьёзном конфликте, бушующем во внешнем мире, Диана покидает свой дом, чтобы справиться с этой угрозой. И там, сражаясь бок о бок с человеком в войне за мир, Диана обнаружит всю полноту своей власти... и своё истинное предназначение.



Качество: BDRip 1080p
Формат: MKV
Видео: AVC, 1920x800 (2.40:1), 9494 kbps, 23,976 fps, 0,258 bpp
Аудио №1: AC3 / 5.1 / 48 kHz / 448 kbps | RUS
Аудио №2: AC3 / 5.1 / 48 kHz / 448 kbps | ENG
General
Unique ID : 253924605502326658164222674665278728020 (0xBF0819A278A47779819846A64DBAE754)
Complete name : D:\Chudo.Zhenschina.2017.DUAL.BDRip.1080p.-HELLYWOOD.mkv
Format : Matroska
Format version : Version 4 / Version 2
File size : 10.3 GiB
Duration : 2 h 21 min
Overall bit rate : 10.4 Mb/s
Movie name : Wonder Woman (2017)
Encoded date : UTC 2017-09-22 07:47:11
Writing application : mkvmerge v5.9.0 ('On The Loose') built on Dec 15 2012 16:39:58
Writing library : libebml v1.3.0 + libmatroska v1.4.0

Video
ID : 1
Format : AVC
Format/Info : Advanced Video Codec
Format profile : High@L4.1
Format settings, CABAC : Yes
Format settings, ReFrames : 5 frames
Codec ID : V_MPEG4/ISO/AVC
Duration : 2 h 21 min
Bit rate : 9 494 kb/s
Width : 1 920 pixels
Height : 800 pixels
Display aspect ratio : 2.40:1
Frame rate mode : Constant
Frame rate : 23.976 (24000/1001) FPS
Color space : YUV
Chroma subsampling : 4:2:0
Bit depth : 8 bits
Scan type : Progressive
Bits/(Pixel*Frame) : 0.258
Stream size : 9.16 GiB (89%)
Title : potroks
Writing library : x264 core 152 r2851M ba24899
Encoding settings : cabac=1 / ref=5 / deblock=1:-3:-3 / analyse=0x3:0x112 / me=umh / subme=11 / psy=1 / psy_rd=0.96:0.00 / mixed_ref=1 / me_range=48 / chroma_me=1 / trellis=2 / 8x8dct=1 / cqm=0 / deadzone=22,11 / fast_pskip=0 / chroma_qp_offset=-2 / threads=9 / lookahead_threads=2 / sliced_threads=0 / nr=0 / decimate=0 / interlaced=0 / bluray_compat=0 / constrained_intra=0 / bframes=11 / b_pyramid=2 / b_adapt=2 / b_bias=0 / direct=3 / weightb=1 / open_gop=0 / weightp=2 / keyint=240 / keyint_min=23 / scenecut=40 / intra_refresh=0 / rc_lookahead=0 / rc=2pass / mbtree=0 / bitrate=9494 / ratetol=1.0 / qcomp=0.70 / qpmin=0 / qpmax=69 / qpstep=4 / cplxblur=20.0 / qblur=0.5 / vbv_maxrate=62500 / vbv_bufsize=44642 / nal_hrd=none / filler=0 / ip_ratio=1.40 / pb_ratio=1.30 / aq=1:0.80
Language : English
Default : Yes
Forced : No

Audio #1
ID : 2
Format : AC-3
Format/Info : Audio Coding 3
Mode extension : CM (complete main)
Format settings, Endianness : Big
Codec ID : A_AC3
Duration : 2 h 21 min
Bit rate mode : Constant
Bit rate : 448 kb/s
Channel(s) : 6 channels
Channel positions : Front: L C R, Side: L R, LFE
Sampling rate : 48.0 kHz
Frame rate : 31.250 FPS (1536 spf)
Compression mode : Lossy
Stream size : 453 MiB (4%)
Title : Dub | DD 5.1 @ 448 kbps - Blu-ray CEE
Language : Russian
Default : Yes
Forced : No

Audio #2
ID : 3
Format : AC-3
Format/Info : Audio Coding 3
Mode extension : CM (complete main)
Format settings, Endianness : Big
Codec ID : A_AC3
Duration : 2 h 21 min
Bit rate mode : Constant
Bit rate : 448 kb/s
Channel(s) : 6 channels
Channel positions : Front: L C R, Side: L R, LFE
Sampling rate : 48.0 kHz
Frame rate : 31.250 FPS (1536 spf)
Compression mode : Lossy
Stream size : 453 MiB (4%)
Title : Original | DD 5.1 @ 448 kbps
Language : English
Default : No
Forced : No

Text #1
ID : 4
Format : UTF-8
Codec ID : S_TEXT/UTF8
Codec ID/Info : UTF-8 Plain Text
Title : Forced
Language : Russian
Default : Yes
Forced : No

Text #2
ID : 5
Format : UTF-8
Codec ID : S_TEXT/UTF8
Codec ID/Info : UTF-8 Plain Text
Title : iTunes
Language : Russian
Default : No
Forced : No

Text #3
ID : 6
Format : UTF-8
Codec ID : S_TEXT/UTF8
Codec ID/Info : UTF-8 Plain Text
Title : Full
Language : English
Default : No
Forced : No

Text #4
ID : 7
Format : UTF-8
Codec ID : S_TEXT/UTF8
Codec ID/Info : UTF-8 Plain Text
Title : SDH
Language : English
Default : No
Forced : No

Text #5
ID : 8
Format : UTF-8
Codec ID : S_TEXT/UTF8
Codec ID/Info : UTF-8 Plain Text
Title : SDH-Colored
Language : English
Default : No
Forced : No

Menu
00:00:00.000 : en:Chapter 01
00:10:26.917 : en:Chapter 02
00:23:12.557 : en:Chapter 03
00:33:10.738 : en:Chapter 04
00:43:55.132 : en:Chapter 05
00:54:25.553 : en:Chapter 06
01:07:38.262 : en:Chapter 07
01:22:30.195 : en:Chapter 08
01:34:02.845 : en:Chapter 09
01:45:37.998 : en:Chapter 10
01:57:43.765 : en:Chapter 11
02:10:41.416 : en:Chapter 12
02:21:15.717 : en:Chapter 13
pb.wtf



Скачать Чудо-женщина через торрент http://i2.imageban.ru/out/2017/09/23/856e7c2fdc9b96a0e28d067bc1b494b8.png Скачать фильм Чудо-женщина через торрент бесплантно в хорошем качестве Описание: Перед тем как стать Чудо-Женщиной, она была Дианой - принцессой амазонок, обученной быть непобедимой воительницей. И когда на ... 9.9 10 18
Info! Золотая раздача, скачанное не засчитывается.
Торрент: Зарегистрирован [2017-09-23 14:22] · скачан: 581 раз
Статус: √ проверено
Размер: 10.25 GB
Как cкачать? Как скачать Чудо-женщина через торрент | UTorrent

% Раздел Тема Автор DL S | L
Фильмы (WEB-DL 720p, 1080p) [ 11.64 GB ] Чудо-женщина: 1984 / Wonder Woman 1984 [2020 WEB-DL 1080p ] DUB [Мосфильм-Мастер] bober100 Скачать
21 | 0
Ultra HD (UHD: 2K, 4K, 8K) — видео сверхвысокой чёткости [ 20.2 GB ] Чудо-женщина: 1984 / Wonder Woman 1984 [2020 WEB-DL-HEVC 2160p ] MVO [HDRezka Studio] bober100 Скачать
18 | 0
Фильмы 2019-2020 [DVDrip, WEB-DLRip, HDrip] (DUB, MVO) [ 1.46 GB ] Чудо-женщина: 1984 / Wonder Woman 1984 [2020 WEB-DLRip] - [Мосфильм-Мастер] Twi7ter Скачать
263 | 8
Фильмы 2019-2020 [DVDrip, WEB-DLRip, HDrip] (DUB, MVO) [ 2.18 GB ] Чудо-женщина: 1984 / Wonder Woman 1984 [2020 WEB-DLRip] - [Мосфильм-Мастер] Twi7ter Скачать
144 | 15
Фильмы (WEB-DL 720p, 1080p) [ 5.56 GB ] Чудо-женщина: 1984 / Wonder Woman 1984 [2020 WEB-DL 720p ] DUB [Мосфильм-Мастер] bober100 Скачать
14 | 0
Фильмы 2019-2020 [DVDrip, WEB-DLRip, HDrip] (DUB, MVO) [ 1.46 GB ] Чудо-женщина: 1984 / Wonder Woman 1984 [2020 WEB-DLRip ] DUB [Мосфильм-Мастер] bober100 Скачать
4 | 0
Фильмы 2019-2020 [DVDrip, WEB-DLRip, HDrip] (DUB, MVO) [ 2.18 GB ] Чудо-женщина: 1984 / Wonder Woman 1984 [2020 WEB-DLRip] Dub [IMAX Edition] Russian Mafia Скачать
3 | 0

28-11-2019 20:33  

Отключить всю рекламу на сайте


25-09-2017 05:33 Чудо-женщина Скачать торрент  

pb.wtf



    Дорогой пользователь! Огромная просьба, поблагодарите релизера, оцените раздачу и оставьте свои комментарий, если Вы скачали Чудо-женщина через торрент бесплатно! Внесите свою лепту в развитие PiratBit!
    Комментировать посты могут только пользователи прошедшие не сложную регистрацию
    Показать сообщения:    

    Чудо-женщина через торрент
    Скачать бесплатно Чудо-женщина
    Чудо-женщина скачать торрент
    Чудо-женщина смотреть онлайн
    Cкачать фильм Чудо-женщина бесплатно
    Чудо-женщина скачать торрент в хорошем качестве
    Чудо-женщина смотреть онлайн бесплатно в хорошем качестве


    Вы не можете начинать темы
    Вы не можете отвечать на сообщения
    Вы не можете редактировать свои сообщения
    Вы не можете удалять свои сообщения
    Вы не можете голосовать в опросах
    Вы не можете прикреплять файлы к сообщениям
    Вы можете скачивать файлы