новый адрес пиратбит piratbit
MEGA NEWS Получи личный уникальный адрес сайта и защити себя от блокировок. Внимание количество ограничено!!!

iTunes

1+1

iTunes

мы

iTunes

1

iTunes

Чернобыль

iTunes

Ральф против интернета

Лицензия

ПШазам

Лицензия

Игра престолов

Лицензия

30
pack

ВАЖНО

!!Акция!!

Alien_RageХит недели

RePack

Resident Evil 21

ИГРА 18+

pack

RePack

Metro:Exodus

!!Акция!!

Alien_Rage

RePack

fifa19

RePack

Assassins Creed: Odyssey

RePack

NEED FOR SPEED™ PAYBACK

3 сезон

9 сезон

Бесстыжие 9 сезон

Все сериалы

все сериалы на PB.wtf

RePack

FAR CRY 5
Ребята, катастрофически не хватает 1900р. для оплаты серверов за АВГУСТ (всвязи с блокировками трафик упал в 3 раза), 1-2р., выручайте.
  

Девушка с пистолетом / La ragazza con la pistola (Марио Моничелли) [1968 г., Комедия, DVDRip-AVC, Дубляж] от ExKinoRay pb.wtf

Девушка с пистолетом через торрент pb.wtf

Размер: 2.37 GB | Добавлен: 2 года назад | Торрент скачан:16 раз
Скачать  

24-09-2017 02:35 Девушка с пистолетом Скачать торрент  

Девушка с пистолетом / La ragazza con la pistola
Год выпуска: 1968
Страна: Италия
Жанр: Комедия
Продолжительность: 01:38:35
Перевод: Дубляж

Режиссер: Марио Моничелли

Премьера в мире: 22 августа 1968

rating

В ролях: Моника Витти, Стэнли Бэйкер, Карло Джуффре, Корин Редгрейв, Энтони Бут, Альдо Пульизи, Тиберио Мурджа, Доминик Аллан, Дебора Стэнфорд, Катрин Феллер

Описание: Из багажа у молодой сицилианки Ассунты Патане — один пистолет. Пышноусый и блудливый Винченцо Макалузо похитил ее, обесчестил и сбежал. Лишенная братьев, которые бы убили его, Ассунта под напутствия деревни покидает берега родной Сицилии, чтобы собственноручно свершить кровную месть. Путь мстительнице предстоит неблизкий — след ведет в Лондон…

Доп. информация: Советский дубляж + вставки многоголосого
В Советском прокате "Не промахнись, Асунта!"

Качество: DVDRip-AVC
Формат: MKV
Видео кодек: MPEG4
Аудио кодек: AC3
Видео: MPEG-4 AVC, 2800 Кбит/с, 706x552@1004x552, 25 кадров/сек
Аудио#1: Русский (AC3, 2 ch, 192 Кбит/с, 48 КГц)
Аудио#2: Итальянский (AC3, 6 ch, 448 Кбит/с, 48 КГц)
Релиз от:




raw [info]: 706x552p 64:45 @ 25/1 fps (cfr)
x264 [info]: using SAR=64/45
x264 [info]: using cpu capabilities: MMX2 SSE2Fast LZCNT
x264 [info]: profile High, level 4.1
x264 [info]: frame I:952 Avg QP:16.02 size: 61735
x264 [info]: frame P:33239 Avg QP:18.54 size: 28106
x264 [info]: frame B:113689 Avg QP:20.04 size: 9476
x264 [info]: consecutive B-frames: 1.8% 3.6% 8.5% 21.8% 22.7% 34.4% 6.0% 0.7% 0.2% 0.2% 0.0% 0.0% 0.0% 0.0% 0.0% 0.0% 0.1%
-----
Общее
Уникальный идентификатор : 189798388902472917931397580888773484401 (0x8EC9D70E10C5517A99DCDE95B89FDF71)
Полное имя : D:\Relizes\He.Promaxnis.Acynta.1968.DVDRip-AVC.ExKinoRay.mkv
Формат : Matroska
Версия формата : Version 2
Размер файла : 2,37 Гбайт
Продолжительность : 1 ч. 38 м.
Общий поток : 3442 Кбит/сек
Дата кодирования : UTC 2017-09-24 00:08:07
Программа кодирования : mkvmerge v7.8.0 ('River Man') 32bit built on Apr 3 2015 12:11:22
Библиотека кодирования : libebml v1.3.1 + libmatroska v1.4.2

Видео
Идентификатор : 1
Формат : AVC
Формат/Информация : Advanced Video Codec
Профиль формата : High@L4.1
Параметр CABAC формата : Да
Параметр ReFrames формата : 14 кадров
Идентификатор кодека : V_MPEG4/ISO/AVC
Продолжительность : 1 ч. 38 м.
Битрейт : 2800 Кбит/сек
Ширина : 706 пикселей
Высота : 552 пикселя
Соотношение сторон : 16:9
Режим частоты кадров : Постоянный
Частота кадров : 25,000 кадров/сек
Цветовое пространство : YUV
Субдискретизация насыщенности : 4:2:0
Битовая глубина : 8 бит
Тип развёртки : Прогрессивная
Бит/(Пиксели*Кадры) : 0.287
Размер потока : 1,88 Гбайт (79%)
Библиотека кодирования : x264 core 148 r2638 7599210
Настройки программы : cabac=1 / ref=14 / deblock=1:-2:-2 / analyse=0x3:0x133 / me=umh / subme=10 / psy=1 / psy_rd=1.05:0.15 / mixed_ref=1 / me_range=32 / chroma_me=1 / trellis=2 / 8x8dct=1 / cqm=0 / deadzone=21,11 / fast_pskip=0 / chroma_qp_offset=-3 / threads=4 / lookahead_threads=1 / sliced_threads=0 / nr=0 / decimate=0 / interlaced=0 / bluray_compat=0 / constrained_intra=0 / bframes=16 / b_pyramid=2 / b_adapt=2 / b_bias=0 / direct=3 / weightb=1 / open_gop=0 / weightp=2 / keyint=250 / keyint_min=25 / scenecut=40 / intra_refresh=0 / rc=2pass / mbtree=0 / bitrate=2800 / ratetol=1.0 / qcomp=0.60 / qpmin=0 / qpmax=69 / qpstep=4 / cplxblur=20.0 / qblur=0.5 / ip_ratio=1.40 / pb_ratio=1.30 /

aq=1:1.00
Язык : English
Default : Да
Forced : Нет
Цветовой диапазон : Limited
Основные цвета : BT.601 NTSC
Характеристики трансфера : BT.601
Коэффициенты матрицы : BT.601

Аудио #1
Идентификатор : 2
Формат : AC-3
Формат/Информация : Audio Coding 3
Расширение режима : CM (complete main)
Параметр Endianness формата : Big
Идентификатор кодека : A_AC3
Продолжительность : 1 ч. 38 м.
Вид битрейта : Постоянный
Битрейт : 192 Кбит/сек
Каналы : 2 канала
Расположение каналов : Front: L R
Частота : 48,0 КГц
Частота кадров : 31,250 кадров/сек (1536 spf)
Метод сжатия : С потерями
Размер потока : 135 Мбайт (6%)
Язык : Russian
Default : Да
Forced : Нет

Аудио #2
Идентификатор : 3
Формат : AC-3
Формат/Информация : Audio Coding 3
Расширение режима : CM (complete main)
Параметр Endianness формата : Big
Идентификатор кодека : A_AC3
Продолжительность : 1 ч. 38 м.
Вид битрейта : Постоянный
Битрейт : 448 Кбит/сек
Каналы : 6 каналов
Расположение каналов : Front: L C R, Side: L R, LFE
Частота : 48,0 КГц
Частота кадров : 31,250 кадров/сек (1536 spf)
Метод сжатия : С потерями
Размер потока : 316 Мбайт (13%)
Язык : Italian
Default : Нет
Forced : Нет

pb.wtf



Скачать Девушка с пистолетом через торрент http://s018.radikal.ru/i520/1709/24/a95922564806.jpg Скачать фильм Девушка с пистолетом через торрент бесплантно в хорошем качестве Описание: Из багажа у молодой сицилианки Ассунты Патане — один пистолет. Пышноусый и блудливый Винченцо Макалузо похитил ее, обесчестил и ... 10 10 1
Info! Золотая раздача, скачанное не засчитывается.
Торрент: Зарегистрирован [2017-09-24 02:35] · скачан: 16 раз
Статус: √ проверено
Размер: 2.37 GB
Как cкачать? Как скачать Девушка с пистолетом через торрент | qTorrent


>> Регистрируемся здесь <<






Отзывы и комментарии о схеме читаем и пишем здесь: ---> Отзывы и комментарии о схеме

Новые благодарочки в телеграм довольных пользователей:
скриншот   скриншот   скриншот   скриншот   скриншот

24-09-2017 03:52 Девушка с пистолетом Скачать торрент  

Топик был перенесен из форума Оформление раздач (Кино, Видео и ТВ) в форум Классика зарубежного кино


schultzpb.wtf



    Дорогой пользователь! Огромная просьба, поблагодарите релизера, оцените раздачу и оставьте свои комментарий, если Вы скачали Девушка с пистолетом через торрент бесплатно! Внесите свою лепту в развитие PiratBit!
    Комментировать посты могут только пользователи прошедшие не сложную регистрацию
    Показать сообщения:    

    Девушка с пистолетом через торрент
    Скачать бесплатно Девушка с пистолетом
    Девушка с пистолетом скачать торрент
    Девушка с пистолетом смотреть онлайн
    Cкачать фильм Девушка с пистолетом бесплатно
    Девушка с пистолетом скачать торрент в хорошем качестве
    Девушка с пистолетом смотреть онлайн бесплатно в хорошем качестве


    Вы не можете начинать темы
    Вы не можете отвечать на сообщения
    Вы не можете редактировать свои сообщения
    Вы не можете удалять свои сообщения
    Вы не можете голосовать в опросах
    Вы не можете прикреплять файлы к сообщениям
    Вы можете скачивать файлы