Ссылка на приватное зеркало нашего сайта всего за 1$. Внимание количество ограничено!!!

2 сезон

iTunes

1 сезон

1

iTunes

iTunes

iTunes

1 сезон

RePack

30

ИГРА 18+

pack

ВАЖНО

!!Акция!!

Alien_RageХит недели

RePack

MK11
pack

Забери бонус

RePack

jed

!!Акция!!

Alien_Rage

RePack

fifa19

RePack

Assassins Creed: Odyssey

RePack

NEED FOR SPEED™ PAYBACK

4 сезон

9 сезон

Бесстыжие 9 сезон

Все сериалы

все сериалы на PB.wtf

RePack

FAR CRY 5
  

Чужая война / 1-4 серии из 4 (Александр Черняев) [2014, боевик, военный, экранизация, WEB-DLRip-AVC] pb.wtf

Чужая война через торрент pb.wtf

Размер: 2.81 GB | Добавлен: 3 года 1 мес. назад | Торрент скачан:423 раза
Скачать  

24-09-2017 11:27 Чужая война Скачать торрент  

Чужая война (1-4 серии из 4)Год выпуска: 2014
Страна: Россия
Жанр: боевик, военный, экранизация
Продолжительность: 4 х ~ 00:45:00
Субтитры: отсутствуют

Режиссер: Александр Черняев

rating

В ролях:

Вячеслав Крикунов, Артём Ткаченко, Александр Самойленко, Валерий Соловьёв, Чунг Зунг, Михаил Тарабукин, Александр Фисенко, Владислав Дёмин, Николай Мачульский, Чыонг Хо Фыонг Нга, Андрей Лавров, Никита Грибанов, Амаду Мамадаков, Сергей Векслер, Александр Яковлев, Александр Смирнов (IV), Сергей Загребнев, Константин Тополага, Иван Моховиков, Владимир Дубровский (II), Егор Антонов, Тагир Рахимов, Константин Желдин, Владимир Капустин, Валерий Афанасьев, Елена Великанова

Описание:

По мотивам повести Виктора Леденева "Вьетнамский коктейль". 1970 год. Юго-Восточная Азия. Вьетнам поделен на части и охвачен гражданской войной. Советский Союз, негласно выступая на стороне Севера, наряду с военно-техническими грузами, направляет в Демократическую Республику Вьетнам военных специалистов. Были среди них и части особого назначения. Свои называли их «трофейщики»... Это очерк о группе советских военных, которые проводили консультативную поддержку Северного Вьетнама, а также проводили тайные операции по захвату новейших военных технологий противника.

Качество: WEB-DLRip-AVC
Формат: MKV
Видео кодек: H.264
Аудио кодек: AC3

Видео: 1024x576 (16:9), 25.000 fps, MPEG4 AVC (х264) High@L4.1, ~ 2000 kbps avg, 0.136 bit/pixel
Аудио: 44 kHz, AC3, 2 ch, 192 kbps avg
скриншот   скриншот   скриншот   скриншот  

Общее
Уникальный идентификатор : 196316032208799810069606611660374515849 (0x93B117AE0AC6F000BD25E19BD86FA089)
Полное имя : C:\Chuzaja.vojna.(2014).WEB-DLRip.(AVC).\01.Chuzaja.vojna.2014.WEB-DLRip.AVC.mkv
Формат : Matroska
Версия формата : Version 2
Размер файла : 722 Мбайт
Продолжительность : 46 м.
Общий поток : 2191 Кбит/сек
Дата кодирования : UTC 2016-09-02 18:26:26
Программа кодирования : mkvmerge v6.1.0 ('Old Devil') built on Mar 4 2013 09:10:42
Библиотека кодирования : libebml v1.3.0 + libmatroska v1.4.0

Видео
Идентификатор : 1
Формат : AVC
Формат/Информация : Advanced Video Codec
Профиль формата : High@L4.1
Параметр CABAC формата : Да
Параметр ReFrames формата : 9 кадров
Идентификатор кодека : V_MPEG4/ISO/AVC
Продолжительность : 46 м.
Битрейт : 2000 Кбит/сек
Ширина : 1024 пикселя
Высота : 576 пикселей
Соотношение сторон : 16:9
Режим частоты кадров : Постоянный
Частота кадров : 25,000 кадров/сек
Цветовое пространство : YUV
Субдискретизация насыщенности : 4:2:0
Битовая глубина : 8 бит
Тип развёртки : Прогрессивная
Бит/(Пиксели*Кадры) : 0.136
Размер потока : 645 Мбайт (89%)
Библиотека кодирования : x264 core 130 r2273 b3065e6
Настройки программы : cabac=1 / ref=9 / deblock=1:-2:-1 / analyse=0x3:0x133 / me=umh / subme=9 / psy=1 / psy_rd=1.00:0.15 / mixed_ref=1 / me_range=32 / chroma_me=1 / trellis=2 / 8x8dct=1 / cqm=0 / deadzone=21,11 / fast_pskip=0 / chroma_qp_offset=-3 / threads=3 / lookahead_threads=1 / sliced_threads=0 / nr=0 / decimate=1 / interlaced=0 / bluray_compat=0 / constrained_intra=0 / bframes=9 / b_pyramid=2 / b_adapt=2 / b_bias=0 / direct=1 / weightb=1 / open_gop=0 / weightp=2 / keyint=250 / keyint_min=25 / scenecut=40 / intra_refresh=0 / rc=2pass / mbtree=0 / bitrate=2000 / ratetol=1.0 / qcomp=0.60 / qpmin=0 / qpmax=69 / qpstep=4 / cplxblur=20.0 / qblur=0.5 / ip_ratio=1.40 / pb_ratio=1.30 / aq=2:1.00
Default : Да
Forced : Нет
Цветовой диапазон : Limited
Основные цвета : BT.709
Характеристики трансфера : BT.709
Коэффициенты матрицы : BT.709

Аудио
Идентификатор : 2
Формат : AC-3
Формат/Информация : Audio Coding 3
Расширение режима : CM (complete main)
Параметр Endianness формата : Big
Идентификатор кодека : A_AC3
Продолжительность : 46 м.
Вид битрейта : Постоянный
Битрейт : 192 Кбит/сек
Каналы : 2 канала
Расположение каналов : Front: L R
Частота : 44,1 КГц
Метод сжатия : С потерями
Размер потока : 63,3 Мбайт (9%)
Default : Да
Forced : Нет

pb.wtf



Скачать Чужая война через торрент http://rudb.org/img/2016_09/i57cad95206184.jpg Скачать фильм Чужая война через торрент бесплантно в хорошем качестве Описание: По мотивам повести Виктора Леденева "Вьетнамский коктейль". 1970 год. Юго-Восточная Азия. Вьетнам поделен на части и охвачен ... 9.9 10 13
Info! Золотая раздача, скачанное не засчитывается.
Торрент: Зарегистрирован [2017-09-24 11:27] · скачан: 423 раз
Статус: √ проверено
Размер: 2.81 GB
Как cкачать? Как скачать Чужая война через торрент | qTorrent

% Раздел Тема Автор DL S | L
Наши сериалы [ 5.38 GB ] Чужая война / Серии: 1-4 из 4 [2014 WEB-DL 1080p] smaster Скачать
1 | 0

28-11-2019 20:33  

Отключить всю рекламу на сайте

24-09-2017 12:52 Чужая война Скачать торрент  

отличное кино!pb.wtf



24-09-2017 14:29 Чужая война Скачать торрент  

Норм кино, хоть и от НТВшниковpb.wtf



    Дорогой пользователь! Огромная просьба, поблагодарите релизера, оцените раздачу и оставьте свои комментарий, если Вы скачали Чужая война через торрент бесплатно! Внесите свою лепту в развитие PiratBit!
    Комментировать посты могут только пользователи прошедшие не сложную регистрацию
    Показать сообщения:    

    Чужая война через торрент
    Скачать бесплатно Чужая война
    Чужая война скачать торрент
    Чужая война смотреть онлайн
    Cкачать фильм Чужая война бесплатно
    Чужая война скачать торрент в хорошем качестве
    Чужая война смотреть онлайн бесплатно в хорошем качестве


    Вы не можете начинать темы
    Вы не можете отвечать на сообщения
    Вы не можете редактировать свои сообщения
    Вы не можете удалять свои сообщения
    Вы не можете голосовать в опросах
    Вы не можете прикреплять файлы к сообщениям
    Вы можете скачивать файлы