2 сезон

iTunes

MVO

1

2 сезон

iTunes

iTunes

1 сезон

RePack

30

Ultimate

ВАЖНО

ИГРА 18+

pack

RePack

MK11
pack

Легкие деньги

RePack

jed

RePack

fifa19

RePack

RDR2

RePack

NEED FOR SPEED™ PAYBACK

4 сезон

9 сезон

Бесстыжие 9 сезон

Все сериалы

все сериалы на PB.wtf

RePack

FAR CRY 5

Anonymous, добрый день, мы не успеваем собрать деньги на оплату серверов за декабрь и январь, помогите нам пожалуйста в это трудное время. В качестве благодарности мы отключим Вам всю рекламу на сайте (укажите свой ник в строку Ваше имя)!

×
  
Magnet ссылка

Пираты Карибского моря: Мертвецы не рассказывают сказки в 3Д / Pirates of the Caribbean: Dead Men Tell No Tales 3D (Хоаким Роннинг, Эспен Сандберг / Joac) [2017, Фэнтези, Боевик, Комедия, Приключения, BDrip, 1080p] OverUnder / Вертикальная стереопара pb.wtf

Пираты Карибского моря: Мертвецы не рассказывают сказки в 3Д через торрент pb.wtf

Раздают: 1 [ 13 KB/s ]
Размер: 17.96 GB | Добавлен: 3 года 4 мес. назад | Торрент скачан:209 раз
Скачать  

24-09-2017 14:12 Пираты Карибского моря: Мертвецы не рассказывают сказки в 3Д Скачать торрент  

Пираты Карибского моря: Мертвецы не рассказывают сказки / Pirates of the Caribbean: Dead Men Tell No Tales

Год выпуска: 2017
Страна: США (Walt Disney Pictures, Infinitum Nihil Production, Jerry Bruckheimer Films)
Жанр: Фэнтези, Боевик, Комедия, Приключения
Продолжительность: 02:09:07

Перевод: Профессиональный дублированный(лицензия)
Русские субтитры: нет
Режиссер: Хоаким Роннинг, Эспен Сандберг / Joachim Roenning, Espen Sandberg

В ролях: Джонни Депп, Кира Найтли, Кая Скоделарио, Дэвид Уэнэм, Орландо Блум, Джеффри Раш, Брентон Туэйтс, Хавьер Бардем, Голшифте Фарахани, Стивен Грэм

Описание: Исчерпавший свою удачу капитан Джек Воробей обнаруживает, что за ним охотится его старый неприятель, ужасный капитан Салазар и его призрачные пираты. Они только что сбежали из Дьявольского треугольника и намерены уничтожить всех пиратов, включая Джека. Поможет спастись лишь могущественный артефакт — трезубец Посейдона, который дарует своему обладателю полный контроль над морями.

Сэмпл: http://sendfile.su/1364096

Качество: BDrip, 1080p
Контейнер: MKV
Формат 3D: OverUnder / Вертикальная стереопара
Порядок ракурсов: левый ракурс первый
Видео кодек: x264
Аудио кодек: AC3
Видео: AVC / High@L5.0 / 23,976 fps / 1920х2160 / 18,2 Мбит/сек
Аудио: Русский / AC3 / 48 KHz / 5.1 ch / 640 Кбит/сек(лицензия)
Аудио 2: Английский / AC3 / 48 KHz / 5.1 ch / 640 Кбит/сек

ВНИМАНИЕ ! На встроенных ТВ-плеерах работать не будет!!!

ТВ Samsung в названии которого есть надпись Ultra HD , и LG Ultra HD 800 серии, LG C6P, Xiaomi Mi TV 2 воспроизводят полные стереопары встроенными плеерами
Железные плееры на которых воспроизводятся полные стереопары:Popcorn C-200 , Dune HD Smart D1 , Dune HD DUO , Dune HD Smart H1 , Dune HD Smart B1 , Dune HD Max , Dune HD TV-303D , Dune HD Base 3D, Philips HMP7001, Aura HD, MECOOL BB2
Чтобы изображение было на весь экран в плеере выставляем, если рип 1920х1600 - то выставляем 2.35:1 , если 1920х2160 - то выставляем 16:9
Общее
Уникальный идентификатор : 222145875468226965767751412657565276558 (0xA71FBD469B9095C8886A064A6DA5198E)
Полное имя : E:\закачки\Pirates of the Caribbean Dead Men Tell No Tales.Rip by SeRoGa00.mkv
Формат : Matroska
Версия формата : Version 2
Размер файла : 18,0 Гбайт
Продолжительность : 2 ч. 9 м.
Общий поток : 19,9 Мбит/сек
Дата кодирования : UTC 2017-09-24 12:51:46
Программа кодирования : mkvmerge v3.4.0 ('Rapunzel') сборка от May 15 2010 09:38:20
Библиотека кодирования : libebml v0.8.0 + libmatroska v0.9.0

Видео
Идентификатор : 1
Формат : AVC
Формат/Информация : Advanced Video Codec
Профиль формата : High@L5.0
Параметр CABAC формата : Да
Параметр ReFrames формата : 4 кадра
Идентификатор кодека : V_MPEG4/ISO/AVC
Продолжительность : 2 ч. 9 м.
Битрейт : 18,2 Мбит/сек
Ширина : 1920 пикселей
Высота : 2160 пикселей
Соотношение сторон : 0,889
Частота кадров : 23,976 кадра/сек
Цветовое пространство : YUV
Субдискретизация насыщенности : 4:2:0
Битовая глубина : 8 бит
Тип развёртки : Прогрессивная
Бит/(Пиксели*Кадры) : 0.183
Размер потока : 16,5 Гбайт (92%)
Заголовок : Rip by SeRoGa00
Библиотека кодирования : x264 core 148 r2762 90a61ec
Настройки программы : cabac=1 / ref=4 / deblock=1:-3:-3 / analyse=0x3:0x113 / me=umh / subme=10 / psy=1 / psy_rd=1.00:0.15 / mixed_ref=1 / me_range=24 / chroma_me=1 / trellis=2 / 8x8dct=1 / cqm=0 / deadzone=21,11 / fast_pskip=1 / chroma_qp_offset=-3 / threads=9 / lookahead_threads=2 / sliced_threads=0 / nr=0 / decimate=1 / interlaced=0 / bluray_compat=0 / constrained_intra=0 / bframes=10 / b_pyramid=2 / b_adapt=2 / b_bias=0 / direct=3 / weightb=1 / open_gop=0 / weightp=2 / keyint=250 / keyint_min=23 / scenecut=40 / intra_refresh=0 / rc_lookahead=60 / rc=crf / mbtree=1 / crf=18.0 / qcomp=0.60 / qpmin=10 / qpmax=69 / qpstep=4 / vbv_maxrate=40000 / vbv_bufsize=40000 / crf_max=0.0 / nal_hrd=none / filler=0 / ip_ratio=1.40 / aq=1:1.00
Язык : English
Default : Нет
Forced : Нет

Аудио #1
Идентификатор : 2
Формат : AC-3
Формат/Информация : Audio Coding 3
Расширение режима : CM (complete main)
Параметр Endianness формата : Big
Идентификатор кодека : A_AC3
Продолжительность : 2 ч. 9 м.
Вид битрейта : Постоянный
Битрейт : 640 Кбит/сек
Каналы : 6 каналов
Расположение каналов : Front: L C R, Side: L R, LFE
Частота : 48,0 КГц
Битовая глубина : 16 бит
Метод сжатия : С потерями
Размер потока : 591 Мбайт (3%)
Язык : Russian
Default : Да
Forced : Нет

Аудио #2
Идентификатор : 3
Формат : AC-3
Формат/Информация : Audio Coding 3
Расширение режима : CM (complete main)
Параметр Endianness формата : Big
Идентификатор кодека : A_AC3
Продолжительность : 2 ч. 9 м.
Вид битрейта : Постоянный
Битрейт : 640 Кбит/сек
Каналы : 6 каналов
Расположение каналов : Front: L C R, Side: L R, LFE
Частота : 48,0 КГц
Битовая глубина : 16 бит
Метод сжатия : С потерями
Размер потока : 591 Мбайт (3%)
Язык : English
Default : Нет
Forced : Нет
скриншот   скриншот  
скриншот   скриншот  
скриншот   скриншот  
pb.wtf



Скачать Пираты Карибского моря: Мертвецы не рассказывают сказки в 3Д через торрент http://s019.radikal.ru/i604/1709/05/fe8cad5f6a95.png Скачать фильм Пираты Карибского моря: Мертвецы не рассказывают сказки в 3Д через торрент бесплантно в хорошем качестве Описание: Исчерпавший свою удачу капитан Джек Воробей обнаруживает, что за ним охотится его старый неприятель, ужасный капитан Салазар и ... 10 10 7
Info! Золотая раздача, скачанное не засчитывается.
Торрент: Зарегистрирован [2017-09-24 14:12] · скачан: 209 раз
Статус: √ проверено
Размер: 17.96 GB
Как cкачать? Как скачать Пираты Карибского моря: Мертвецы не рассказывают сказки в 3Д через торрент | UTorrent

28-11-2019 20:33  

Отключить всю рекламу на сайте

04-10-2017 12:35 Пираты Карибского моря: Мертвецы не рассказывают сказки в 3Д Скачать торрент  

Мне понравилсяpb.wtf



    Дорогой пользователь! Огромная просьба, поблагодарите релизера, оцените раздачу и оставьте свои комментарий, если Вы скачали Пираты Карибского моря: Мертвецы не рассказывают сказки в 3Д через торрент бесплатно! Внесите свою лепту в развитие PiratBit!
    Комментировать посты могут только пользователи прошедшие не сложную регистрацию
    Показать сообщения:    

    Пираты Карибского моря: Мертвецы не рассказывают сказки в 3Д через торрент
    Скачать бесплатно Пираты Карибского моря: Мертвецы не рассказывают сказки в 3Д
    Пираты Карибского моря: Мертвецы не рассказывают сказки в 3Д скачать торрент
    Пираты Карибского моря: Мертвецы не рассказывают сказки в 3Д смотреть онлайн
    Cкачать фильм Пираты Карибского моря: Мертвецы не рассказывают сказки в 3Д бесплатно
    Пираты Карибского моря: Мертвецы не рассказывают сказки в 3Д скачать торрент в хорошем качестве
    Пираты Карибского моря: Мертвецы не рассказывают сказки в 3Д смотреть онлайн бесплатно в хорошем качестве


    Вы не можете начинать темы
    Вы не можете отвечать на сообщения
    Вы не можете редактировать свои сообщения
    Вы не можете удалять свои сообщения
    Вы не можете голосовать в опросах
    Вы не можете прикреплять файлы к сообщениям
    Вы можете скачивать файлы