Ссылка на приватное зеркало нашего сайта всего за 1$. Внимание количество ограничено!!!

2 сезон

iTunes

1 сезон

1

2 сезон

2 сезон

iTunes

1 сезон

RePack

30

Новинка

ВАЖНО

ИГРА 18+

pack

RePack

MK11
pack

Забери бонус

RePack

jed

!!Акция!!

Alien_Rage

RePack

fifa19

RePack

Assassins Creed: Odyssey

RePack

NEED FOR SPEED™ PAYBACK

4 сезон

9 сезон

Бесстыжие 9 сезон

Все сериалы

все сериалы на PB.wtf

RePack

FAR CRY 5
  

Мумия / The Mummy (Алекс Куртцман) [2017, Ужасы, фэнтези, боевик, приключения, BD Remux 1080p] DUB [Лицензия] pb.wtf

Мумия через торрент pb.wtf

Размер: 24.62 GB | Добавлен: 3 года 2 мес. назад | Торрент скачан:106 раз
Скачать  

25-09-2017 04:43 Мумия Скачать торрент  

Мумия / The MummyГод выпуска: 2017
Страна: США
Жанр: Ужасы, фэнтези, боевик, приключения
Продолжительность: 01:50:06
Перевод: Дублированный | Лицензия
Субтитры: Русские (Лицензия (forced, full)), английские (full, SDH, SDH Colored)

Режиссер: Алекс Куртцман

rating

В ролях:

Том Круз, Расселл Кроу, Аннабелль Уоллис, София Бутелла, Джейк Джонсон, Кортни Б. Вэнс, Марван Кензари, Саймон Атертон

Описание:

События происходят в наши дни, герой Тома Круза по имени Ник Мортон – боец спецподразделения на Ближнем Востоке, который, преследуя боевиков, попадает в странный бункер, где обнаруживает мумию ассирийской царицы. Вместе с ученой-антропологом по имени Дженни Хэлси (Аннабелль Уоллис) и группой солдат ее тело самолетом перевозят в Лондон. В процессе транспортировки случается инцидент, и самолет терпит крушение, после которого выжить удается только Нику и...мумии. Как гласит история, в свое время судьба несправедливо обошлась с ней и теперь, спустя тысячи лет, богиня просыпается ото сна. Пролежав все это время под тоннами песка, она наконец-то обретает свободу, и теперь ей ничто не помешает обрушить всю свою ярость на человечество.


Качество: BD Remux 1080p |Blu-Ray EUR|
Формат: MKV
Видео кодек: H.264
Аудио кодек: DTS/AC3

Видео: MPEG-4 AVC, 1920x1080, 25.1 Mbit/s, 23.976 fps
Аудио#1: 48 kHz, DTS, 5.1, 768 Kbps | Дублированный | RUS |
Аудио#2: 48 kHz, AC3, 5.1, 448 Kbps | Дублированный | RUS |
Аудио#3: 48 kHz, TrueHD, 7.1, 5016 Kbps | Оригинал | ENG |
Аудио#4: 48 kHz, AC3, 5.1, 640 Kbps | Оригинал | ENG |

Релиз от:
скриншот   скриншот   скриншот   скриншот   скриншот  

General
Unique ID : 195102915672327054152443787103696425219 (0x92C7746AB24D3228A82AF745BFD99103)
Complete name : F:VideoThe.Mummy.2017.Lic.BDREMUX.1080p.ExKinoRay.mkv
Format : Matroska
Format version : Version 4 / Version 2
File size : 24.6 GiB
Duration : 1 h 50 min
Overall bit rate mode : Variable
Overall bit rate : 32.0 Mb/s
Encoded date : UTC 2017-09-24 06:58:45
Writing application : mkvmerge v15.0.0 ('Duel with the Devil') 64-bit
Writing library : libebml v1.3.5 + libmatroska v1.4.5

Video
ID : 1
Format : AVC
Format/Info : Advanced Video Codec
Format profile : High@L4.1
Format settings, CABAC : Yes
Format settings, RefFrames : 4 frames
Codec ID : V_MPEG4/ISO/AVC
Duration : 1 h 50 min
Bit rate mode : Variable
Bit rate : 25.1 Mb/s
Maximum bit rate : 28.0 Mb/s
Width : 1 920 pixels
Height : 1 080 pixels
Display aspect ratio : 16:9
Frame rate mode : Constant
Frame rate : 23.976 (24000/1001) FPS
Color space : YUV
Chroma subsampling : 4:2:0
Bit depth : 8 bits
Scan type : Progressive
Bits/(Pixel*Frame) : 0.504
Stream size : 19.3 GiB (78%)
Language : English
Default : Yes
Forced : No

Audio #1
ID : 2
Format : DTS
Format/Info : Digital Theater Systems
Mode : 16
Format settings, Endianness : Big
Codec ID : A_DTS
Duration : 1 h 50 min
Bit rate mode : Constant
Bit rate : 768 kb/s
Channel(s) : 6 channels
Channel positions : Front: L C R, Side: L R, LFE
Sampling rate : 48.0 kHz
Frame rate : 93.750 FPS (512 SPF)
Bit depth : 24 bits
Compression mode : Lossy
Stream size : 605 MiB (2%)
Title : Dub [License]
Language : Russian
Default : Yes
Forced : No

Audio #2
ID : 3
Format : AC-3
Format/Info : Audio Coding 3
Format settings, Endianness : Big
Codec ID : A_AC3
Duration : 1 h 50 min
Bit rate mode : Constant
Bit rate : 448 kb/s
Channel(s) : 6 channels
Channel positions : Front: L C R, Side: L R, LFE
Sampling rate : 48.0 kHz
Frame rate : 31.250 FPS (1536 SPF)
Bit depth : 16 bits
Compression mode : Lossy
Stream size : 353 MiB (1%)
Title : Dub [License]
Language : Russian
Service kind : Complete Main
Default : No
Forced : No

Audio #3
ID : 4
Format : TrueHD
Format profile : TrueHD+Atmos / TrueHD
Codec ID : A_TRUEHD
Duration : 1 h 50 min
Bit rate mode : Variable
Bit rate : 5 016 kb/s
Maximum bit rate : 8 133 kb/s
Channel(s) : Object Based / 8 channels
Channel positions : Object Based / Front: L C R, Side: L R, Back: L R, LFE
Sampling rate : / 48.0 kHz
Frame rate : 1 200.000 FPS (40 SPF)
Compression mode : Lossless
Stream size : 3.86 GiB (16%)
Title : Original
Language : English
Default : No
Forced : No

Audio #4
ID : 5
Format : AC-3
Format/Info : Audio Coding 3
Format settings, Endianness : Big
Codec ID : A_AC3
Duration : 1 h 50 min
Bit rate mode : Constant
Bit rate : 640 kb/s
Channel(s) : 6 channels
Channel positions : Front: L C R, Side: L R, LFE
Sampling rate : 48.0 kHz
Frame rate : 31.250 FPS (1536 SPF)
Bit depth : 16 bits
Compression mode : Lossy
Stream size : 504 MiB (2%)
Language : English
Service kind : Complete Main
Default : No
Forced : No

Text #1
ID : 6
Format : UTF-8
Codec ID : S_TEXT/UTF8
Codec ID/Info : UTF-8 Plain Text
Duration : 1 h 49 min
Bit rate : 1 b/s
Count of elements : 44
Stream size : 1.31 KiB (0%)
Title : Forced [License]
Language : Russian
Default : Yes
Forced : No

Text #2
ID : 7
Format : UTF-8
Codec ID : S_TEXT/UTF8
Codec ID/Info : UTF-8 Plain Text
Duration : 1 h 49 min
Bit rate : 50 b/s
Count of elements : 1065
Stream size : 40.6 KiB (0%)
Title : Full [License]
Language : Russian
Default : No
Forced : No

Text #3
ID : 8
Format : UTF-8
Codec ID : S_TEXT/UTF8
Codec ID/Info : UTF-8 Plain Text
Duration : 1 h 36 min
Bit rate : 41 b/s
Count of elements : 1081
Stream size : 29.4 KiB (0%)
Title : Full
Language : English
Default : No
Forced : No

Text #4
ID : 9
Format : UTF-8
Codec ID : S_TEXT/UTF8
Codec ID/Info : UTF-8 Plain Text
Duration : 1 h 37 min
Bit rate : 49 b/s
Count of elements : 1327
Stream size : 35.5 KiB (0%)
Title : SDH
Language : English
Default : No
Forced : No

Text #5
ID : 10
Format : UTF-8
Codec ID : S_TEXT/UTF8
Codec ID/Info : UTF-8 Plain Text
Duration : 1 h 37 min
Bit rate : 73 b/s
Count of elements : 1357
Stream size : 52.5 KiB (0%)
Title : SDH Colored
Language : English
Default : No
Forced : No

Menu
00:00:00.000 : en:00:00:00.000
00:08:18.707 : en:00:08:18.707
00:13:18.923 : en:00:13:18.923
00:19:31.462 : en:00:19:31.462
00:24:40.145 : en:00:24:40.145
00:28:54.107 : en:00:28:54.107
00:35:41.389 : en:00:35:41.389
00:39:36.040 : en:00:39:36.040
00:47:00.067 : en:00:47:00.067
00:50:57.638 : en:00:50:57.638
00:56:49.740 : en:00:56:49.740
01:00:43.849 : en:01:00:43.849
01:08:58.009 : en:01:08:58.009
01:16:03.851 : en:01:16:03.851
01:19:38.440 : en:01:19:38.440
01:23:16.408 : en:01:23:16.408
01:26:26.848 : en:01:26:26.848
01:33:34.943 : en:01:33:34.943
01:37:02.984 : en:01:37:02.984
01:39:47.982 : en:01:39:47.982

pb.wtf



Скачать Мумия через торрент http://s018.radikal.ru/i504/1708/b7/353c4f80a951.jpg Скачать фильм Мумия через торрент бесплантно в хорошем качестве Описание: События происходят в наши дни, герой Тома Круза по имени Ник Мортон – боец спецподразделения на Ближнем Востоке, который, ... 10 10 6
Info! Золотая раздача, скачанное не засчитывается.
Торрент: Зарегистрирован [2017-09-25 04:43] · скачан: 106 раз
Статус: √ проверено
Размер: 24.62 GB
Как cкачать? Как скачать Мумия через торрент | qTorrent

% Раздел Тема Автор DL S | L
Ultra HD (UHD: 2K, 4K, 8K) — видео сверхвысокой чёткости [ 205.8 GB ] Мумия: Трилогия / The Mummy: Trilogy [1999 2001 2008 UHD BDRemux 2160] [Dub + MVO + DVO + AVO] Russian Mafia Скачать
1 | 1
Фильмы (HD 720p, 1080p) (48-60 fps) [ 7.03 GB ] Мумия возвращается / The Mummy Returns [2001 BDRip 720p ] slaventi-69 Скачать
1 | 0
Фильмы (HD 720p, 1080p) (48-60 fps) [ 4.88 GB ] Мумия: Гробница Императора Драконов / The Mummy: Tomb of the Dragon Emperor [2008 BDRip 720p ] slaventi-69 Скачать
1 | 0
Фильмы (HD 720p, 1080p) (48-60 fps) [ 9.17 GB ] Мумия / The Mummy [2017 BDRip 720p / 60 FPS Dub AVO Original] Tiberiumsun69 Скачать
5 | 0
Фильмы (Blu-ray, BD-Remux, HDDVD) [ 36.73 GB ] Мумия / The Mummy [2017 BDRemux 1080p] DUB [] + 3xAVO sheker187 Скачать
1 | 0
National Geographic [ 1.18 GB ] National Geographic: Тайна гималайских мумий / Mystery of the Himalayan Mummies [2016 документальный DVB] VO Armstrong Скачать
1 | 0
Фильмы [HD 720p, 1080p] (Хороший звук DUB, MVO) [ 5.96 GB ] Мумия возвращается / The Mummy Returns [2001 HDDVDRip 1080p HEVC ] Мичман37 Скачать
1 | 0

28-11-2019 20:33  

Отключить всю рекламу на сайте

    Дорогой пользователь! Огромная просьба, поблагодарите релизера, оцените раздачу и оставьте свои комментарий, если Вы скачали Мумия через торрент бесплатно! Внесите свою лепту в развитие PiratBit!
    Комментировать посты могут только пользователи прошедшие не сложную регистрацию
    Показать сообщения:    

    Мумия через торрент
    Скачать бесплатно Мумия
    Мумия скачать торрент
    Мумия смотреть онлайн
    Cкачать фильм Мумия бесплатно
    Мумия скачать торрент в хорошем качестве
    Мумия смотреть онлайн бесплатно в хорошем качестве


    Вы не можете начинать темы
    Вы не можете отвечать на сообщения
    Вы не можете редактировать свои сообщения
    Вы не можете удалять свои сообщения
    Вы не можете голосовать в опросах
    Вы не можете прикреплять файлы к сообщениям
    Вы можете скачивать файлы