1 сезон

3 сезон

iTunes

1

iTunes

MVO

iTunes

13

1 сезон

RePack

30

Deluxe

pack

Лицензия

ВАЖНО

ИГРА 18+

pack

RePack

MK11

RePack

jed

RePack

fifa19

RePack

RDR2

RePack

NEED FOR SPEED™ PAYBACK

4 сезон

9 сезон

Бесстыжие 9 сезон

Все сериалы

все сериалы на PB.wtf

RePack

FAR CRY 5

Anonymous, доброй ночи, мы катастрофически не успеваем собрать деньги на оплату серверов, помогите нам пожалуйста 5,10,15р., для нас важна любая помощь . В качестве благодарности мы отключим Вам всю рекламу на сайте (укажите свой ник в строку Ваше имя)!

×
  
Magnet ссылка

Счастливой охоты / Happy Hunting (Джо Диетч, Люциан Гибсон) [2017, ужасы, WEB-DL 720p] MVO ["Синема УС"] pb.wtf

Счастливой охоты через торрент pb.wtf

Размер: 2.93 GB | Добавлен: 3 года 10 мес. назад | Торрент скачан:84 раза
Скачать  

25-09-2017 06:48 Счастливой охоты Скачать торрент  

Счастливой охоты / Happy HuntingГод выпуска: 2017
Страна: США
Жанр: ужасы
Продолжительность: 01:33:42
Перевод: Любительский (многоголосый) ["Синема УС"]
Субтитры: отсутствуют

Режиссер: Джо Диетч, Люциан Гибсон

rating

В ролях:

Мартин Дингл Уолл, Кен Лэлли, Кенни Вормолд, Коннор Уильямс, Гари Штурм, С.Дж. Бэйкер, Джереми Лосон, Лизель Хэнсон, Кеннет Биллингс

Описание:

Уоррен, алкоголик и наркоман, получает известие о кончине своей бывшей подруги. У нее был ребенок, отцом которого, по всей видимости, и является Уоррен. Он отправляется в Мексику, чтобы разбораться. По пути он останавливается в небольшом городке. Раньше здесь охотились на буйволов, но когда стада ушли, жители переключились на неблагополучную часть населения.

Качество: WEB-DL 720p
Формат: MKV
Видео кодек: H.264
Аудио кодек: AC3

Видео: 4136 kb/s, 1280x520
Аудио: Русский, (AC3, 2 ch, 384 Кбит/с)

скриншот   скриншот   скриншот  

Общее
Уникальный идентификатор : 211727468608016444281568491850649640476 (0x9F493A28BD88FAEB9BA3920869F11E1C)
Полное имя : D:\Happy.Hunting.2017.P.WEB-DL.72Op_KOSHARA.mkv
Формат : Matroska
Версия формата : Version 2
Размер файла : 2,93 Гбайт
Продолжительность : 1 ч. 32 м.
Режим общего битрейта : Переменный
Общий поток : 4522 Кбит/сек
Дата кодирования : UTC 2017-09-24 12:54:18
Программа кодирования : mkvmerge v8.3.0 ('Over the Horizon') 64bit
Библиотека кодирования : libebml v1.3.1 + libmatroska v1.4.2

Видео
Идентификатор : 1
Формат : AVC
Формат/Информация : Advanced Video Codec
Профиль формата : High@L4.1
Параметр CABAC формата : Да
Параметр ReFrames формата : 12 кадров
Идентификатор кодека : V_MPEG4/ISO/AVC
Продолжительность : 1 ч. 32 м.
Вид битрейта : Переменный
Битрейт : 4136 Кбит/сек
Максимальный битрейт : 4500 Кбит/сек
Ширина : 1280 пикселей
Высота : 520 пикселей
Соотношение сторон : 2,462
Режим частоты кадров : Постоянный
Частота кадров : 23,976 (24000/1001) кадра/сек
Стандарт вещания : Component
Цветовое пространство : YUV
Субдискретизация насыщенности : 4:2:0
Битовая глубина : 8 бит
Тип развёртки : Прогрессивная
Бит/(Пиксели*Кадры) : 0.259
Размер потока : 2,68 Гбайт (91%)
Default : Да
Forced : Нет
Цветовой диапазон : Limited
Основные цвета : BT.709
Характеристики трансфера : BT.709
Коэффициенты матрицы : BT.709

Аудио
Идентификатор : 2
Формат : AC-3
Формат/Информация : Audio Coding 3
Расширение режима : CM (complete main)
Параметр Endianness формата : Big
Идентификатор кодека : A_AC3
Продолжительность : 1 ч. 32 м.
Вид битрейта : Постоянный
Битрейт : 384 Кбит/сек
Каналы : 2 канала
Расположение каналов : Front: L R
Частота : 48,0 КГц
Частота кадров : 31,250 кадров/сек (1536 spf)
Метод сжатия : С потерями
Размер потока : 255 Мбайт (8%)
Default : Да
Forced : Нет
pb.wtf



Скачать Счастливой охоты через торрент http://s018.radikal.ru/i519/1709/b4/ed6f1ce56bec.jpg Скачать фильм Счастливой охоты через торрент бесплантно в хорошем качестве Описание: Уоррен, алкоголик и наркоман, получает известие о кончине своей бывшей подруги. У нее был ребенок, отцом которого, по всей ... 10 10 6
Торрент: Зарегистрирован [2017-09-25 06:48] · скачан: 84 раз
Статус: T временная
Размер: 2.93 GB
Как cкачать? Как скачать Счастливой охоты через торрент | UTorrent

% Раздел Тема Автор DL S | L
Фильмы с авторской озвучкой [ 1.45 GB ] Счастливой охоты / Happy Hunting [2017 HDRip-AVC] AVO - ExKinoRay Enigma2010 Скачать
2 | 0
T Фильмы (мультфильмы) cо спонсором показа (Новинки AVI/MKV) [ 1.37 GB ] Счастливой охоты / Happy Hunting [2017 WEB-DLRip] MVO ["Синема УС"] bober100 Скачать
1 | 0
Фильмы с авторской озвучкой [ 1.41 GB ] Счастливой охоты / Happy Hunting [2017 WEB-DLRip] AVO - ExKinoRay Enigma2010 Скачать
1 | 0

28-11-2019 20:33  

Отключить всю рекламу на сайте

    Дорогой пользователь! Огромная просьба, поблагодарите релизера, оцените раздачу и оставьте свои комментарий, если Вы скачали Счастливой охоты через торрент бесплатно! Внесите свою лепту в развитие PiratBit!
    Комментировать посты могут только пользователи прошедшие не сложную регистрацию
    Показать сообщения:    

    Счастливой охоты через торрент
    Скачать бесплатно Счастливой охоты
    Счастливой охоты скачать торрент
    Счастливой охоты смотреть онлайн
    Cкачать фильм Счастливой охоты бесплатно
    Счастливой охоты скачать торрент в хорошем качестве
    Счастливой охоты смотреть онлайн бесплатно в хорошем качестве


    Вы не можете начинать темы
    Вы не можете отвечать на сообщения
    Вы не можете редактировать свои сообщения
    Вы не можете удалять свои сообщения
    Вы не можете голосовать в опросах
    Вы не можете прикреплять файлы к сообщениям
    Вы можете скачивать файлы