Ссылка на приватное зеркало нашего сайта всего за 1$. Внимание количество ограничено!!!

2 сезон

iTunes

1 сезон

1

2 сезон

2 сезон

iTunes

1 сезон

RePack

30

Новинка

ВАЖНО

ИГРА 18+

pack

RePack

MK11
pack

Забери бонус

RePack

jed

!!Акция!!

Alien_Rage

RePack

fifa19

RePack

Assassins Creed: Odyssey

RePack

NEED FOR SPEED™ PAYBACK

4 сезон

9 сезон

Бесстыжие 9 сезон

Все сериалы

все сериалы на PB.wtf

RePack

FAR CRY 5
  

Звёздный путь: Дискавери / Star Trek: Discovery / Сезон 1 / Серии 1-15 из 15 (Акива Голдсман, Адам Кэйн, Ли Роуз) [2017, Фантастика, HDTVRip 720p] DVO [SunshineStudio] pb.wtf

Звёздный путь: Дискавери через торрент pb.wtf

Размер: 16.1 GB | Добавлен: 2 года 9 мес. назад | Торрент скачан:60 раз
Скачать  

25-09-2017 11:51 Звёздный путь: Дискавери Скачать торрент  

Звёздный путь: Дискавери / Star Trek: DiscoveryГод выпуска: 2017
Страна: США
Жанр: Фантастика
Продолжительность: 15 x ~ 00:40:00
Перевод: Любительский (двухголосый) -
Субтитры: отсутствуют

Режиссер: Акива Голдсман, Адам Кэйн, Ли Роуз

rating

В ролях:

Джейсон Айзекс, Даг Джонс, Шазад Латиф, Сонекуа Мартин-Грин, Молик Панчоли, Энтони Рэпп, Мишель Йео, Кеннет Митчелл, Дэймон Рунян

Описание:

За 10 лет до начала истории, описанной в оригинальном сериале «Звёздный путь», экипаж корабля USS Discovery NCC-1031 отправляется в путешествие, чтобы изучать глубокий космос и открыть новые миры и цивилизации.

Качество: HDTVRip 720p
Формат: MKV
Видео кодек: H.264
Аудио кодек: AC3

Видео: MPEG-4 AVC, ~ 3000 Кбит/с, 1280x640
Аудио: Русский (AC3, 2 ch, 192 Кбит/с)
скриншот   скриншот   скриншот   скриншот  

Общее
Уникальный идентификатор : 187616479289580808352395837846513419460 (0x8D259E9AFCF5E232A8387529D49684C4)
Полное имя : D:\Star.Trek.Discovery.S01.720p.SunshineStudio\Star.Trek.Discovery.S01E01.720p.SunshineStudio.mkv
Формат : Matroska
Версия формата : Version 4 / Version 2
Размер файла : 1007 Мбайт
Продолжительность : 43 м. 29 с.
Общий поток : 3237 Кбит/сек
Дата кодирования : UTC 2017-09-25 09:55:24
Программа кодирования : mkvmerge v8.3.0 ('Over the Horizon') 64bit
Библиотека кодирования : libebml v1.3.1 + libmatroska v1.4.2

Видео
Идентификатор : 1
Формат : AVC
Формат/Информация : Advanced Video Codec
Профиль формата : High@L3.1
Параметр CABAC формата : Да
Параметр ReFrames формата : 4 кадра
Идентификатор кодека : V_MPEG4/ISO/AVC
Продолжительность : 43 м. 29 с.
Битрейт : 3043 Кбит/сек
Ширина : 1280 пикселей
Высота : 640 пикселей
Соотношение сторон : 2,000
Режим частоты кадров : Постоянный
Частота кадров : 23,976 кадра/сек
Цветовое пространство : YUV
Субдискретизация насыщенности : 4:2:0
Битовая глубина : 8 бит
Тип развёртки : Прогрессивная
Бит/(Пиксели*Кадры) : 0.155
Размер потока : 947 Мбайт (94%)
Библиотека кодирования : x264 core 146 r2538 121396c
Настройки программы : cabac=1 / ref=1 / deblock=1:0:0 / analyse=0x3:0x113 / me=hex / subme=2 / psy=1 / psy_rd=1.00:0.10 / mixed_ref=0 / me_range=16 / chroma_me=1 / trellis=0 / 8x8dct=1 / cqm=0 / deadzone=21,11 / fast_pskip=1 / chroma_qp_offset=0 / threads=18 / lookahead_threads=5 / sliced_threads=0 / nr=0 / decimate=1 / interlaced=0 / bluray_compat=0 / constrained_intra=0 / bframes=3 / b_pyramid=2 / b_adapt=1 / b_bias=0 / direct=1 / weightb=1 / open_gop=0 / weightp=1 / keyint=250 / keyint_min=23 / scenecut=40 / intra_refresh=0 / rc_lookahead=10 / rc=crf / mbtree=1 / crf=17.0 / qcomp=0.60 / qpmin=0 / qpmax=69 / qpstep=4 / ip_ratio=1.40 / aq=1:1.00
Default : Да
Forced : Нет

Аудио
Идентификатор : 2
Формат : AC-3
Формат/Информация : Audio Coding 3
Расширение режима : CM (complete main)
Параметр Endianness формата : Big
Идентификатор кодека : A_AC3
Продолжительность : 43 м. 29 с.
Вид битрейта : Постоянный
Битрейт : 192 Кбит/сек
Каналы : 2 канала
Расположение каналов : Front: L R
Частота : 48,0 КГц
Частота кадров : 31,250 кадров/сек (1536 spf)
Метод сжатия : С потерями
Размер потока : 59,7 Мбайт (6%)
Default : Да
Forced : Нет

Когда раздача ведётся путём добавления новых серий, при каждом добавлении создётся новый торрент. Чтобы начать докачку новой серии, пользователям необходимо сделать следующее:
(1) остановить скачивание,
(2) удалить старый торрент у себя из клиента (старые серии удалять не надо),
(3) скачать новый торрент и запустить его у себя в клиенте вместо старого, при этом указать клиенту путь в старую папку, куда и должно происходить скачивание новых серий.
Ваш клиент при этом должен произвести хеширование (проверку) старой папки (если не производит сам - помогите ему сделать это), и будет докачивать только те серии, которых у вас ещё нет. Старые серии при этом не удаляются, а продолжают раздаваться!
Eсли вы уже удалили старые серии, то предотвратить повторную закачку старых серий можно, отжав галочку в соответсвующих местах при запуске нового торрента. По возможности, желательно не удалять старые серии как можно дольше, чтобы релизёр не столько продолжал раздавать старые серии, а смог сконцентрироваться на новых.
pb.wtf



Скачать Звёздный путь: Дискавери через торрент http://s013.radikal.ru/i322/1709/ac/a5e6f972f2c0.jpg Скачать фильм Звёздный путь: Дискавери через торрент бесплантно в хорошем качестве Описание: За 10 лет до начала истории, описанной в оригинальном сериале «Звёздный путь», экипаж корабля USS Discovery NCC-1031 отправляется ... 10 10 25
Info! Серебряная раздача, засчитывается только 50% скачанного.
Торрент: Зарегистрирован [2018-02-12 13:16] · скачан: 60 раз
Статус: √ проверено
Размер: 16.1 GB
Как cкачать? Как скачать Звёздный путь: Дискавери через торрент | qTorrent

% Раздел Тема Автор DL S | L
Зарубежные сериалы [ 24.4 GB ] Звёздный путь: Дискавери / Star Trek: Discovery / Сезон: 2 / Серии: 1-7 из 15 [2019 WEB-DL 1080p] MVO [Jaskier] bober100 Скачать
1 | 0
Зарубежные сериалы [ 9.65 GB ] Звёздный путь: Дискавери / Star Trek: Discovery / Сезон: 1 / Серии: 1-15 из 15 [2017 WEB-DLRip] MVO [Lostfilm] bober100 Скачать
1 | 0
Зарубежные сериалы [ 148.51 GB ] Звёздный путь: Дискавери / Star Trek: Discovery / Сезон: 1 / Серии: 1-15 из 15 [2017 BD Remux 1080p] 2xMVO [SDI Media LostFilm] bober100 Скачать
1 | 0
Зарубежные сериалы [ 25.27 GB ] Звёздный путь: Дискавери / Star Trek: Discovery / Сезон 1 / Серии 1-15 из 15 [2017 WEB-DLRip 1080p] [MVO] killermax2013 Скачать
1 | 0
Зарубежные сериалы [ 8.33 GB ] Звёздный путь: Дискавери / Star Trek: Discovery / Сезон 1 / Серии 1-15 из 15 [2017 WEBRip] [MVO] killermax2013 Скачать
1 | 0
Зарубежные сериалы [ 7.68 GB ] Звёздный путь: Дискавери / Star Trek: Discovery / Сезон: 1 / Серии: 1-15 из 15 [2017 WEBRip] DVO [Gears Media] bober100 Скачать
1 | 0
Зарубежные сериалы [ 28.7 GB ] Звёздный путь: Дискавери / Star Trek: Discovery / Сезон: 1 / Серии: 1-15 из 15 [2017 WEB-DL 1080p] MVO [LostFilm] bober100 Скачать
1 | 0


Последний раз редактировалось: bober100 (2018-02-12 13:11), всего редактировалось 1 раз

28-11-2019 20:33  

Отключить всю рекламу на сайте

29-01-2018 13:18 Звёздный путь: Дискавери Скачать торрент  

+13pb.wtf



29-01-2018 20:36 Звёздный путь: Дискавери Скачать торрент  

спасибки))))pb.wtf



    Дорогой пользователь! Огромная просьба, поблагодарите релизера, оцените раздачу и оставьте свои комментарий, если Вы скачали Звёздный путь: Дискавери через торрент бесплатно! Внесите свою лепту в развитие PiratBit!
    Комментировать посты могут только пользователи прошедшие не сложную регистрацию
    Показать сообщения:    

    Звёздный путь: Дискавери через торрент
    Скачать бесплатно Звёздный путь: Дискавери
    Звёздный путь: Дискавери скачать торрент
    Звёздный путь: Дискавери смотреть онлайн
    Cкачать фильм Звёздный путь: Дискавери бесплатно
    Звёздный путь: Дискавери скачать торрент в хорошем качестве
    Звёздный путь: Дискавери смотреть онлайн бесплатно в хорошем качестве


    Вы не можете начинать темы
    Вы не можете отвечать на сообщения
    Вы не можете редактировать свои сообщения
    Вы не можете удалять свои сообщения
    Вы не можете голосовать в опросах
    Вы не можете прикреплять файлы к сообщениям
    Вы можете скачивать файлы