2 сезон

iTunes

MVO

1

2 сезон

iTunes

iTunes

1 сезон

RePack

30

Ultimate

ВАЖНО

ИГРА 18+

pack

RePack

MK11
pack

Легкие деньги

RePack

jed

RePack

fifa19

RePack

RDR2

RePack

NEED FOR SPEED™ PAYBACK

4 сезон

9 сезон

Бесстыжие 9 сезон

Все сериалы

все сериалы на PB.wtf

RePack

FAR CRY 5

Anonymous, доброй ночи, мы не успеваем собрать деньги на оплату серверов за декабрь и январь, помогите нам пожалуйста в это трудное время. В качестве благодарности мы отключим Вам всю рекламу на сайте (укажите свой ник в строку Ваше имя)!

×
  
Magnet ссылка

Смокинг / The Tuxedo (Кевин Донован) [2002 г., Боевик, Комедия, Приключения, WEB-DL 720p / 60 FPS, Дубляж iTunes] от R.G. HD-Films pb.wtf

Смокинг через торрент pb.wtf

Размер: 5.32 GB | Добавлен: 3 года 3 мес. назад | Торрент скачан:94 раза
Скачать  

25-09-2017 12:56 Смокинг Скачать торрент  

Смокинг / The Tuxedo
Год выпуска: 2002
Страна: США
Жанр: Боевик, Комедия, Приключения
Продолжительность: 01:38:45
Перевод: Дубляж iTunes
Субтитры: Русские

Режиссер: Кевин Донован

В ролях: Джеки Чан, Дженнифер Лав Хьюитт, Джейсон Айзекс, Деби Мейзар, Ричи Костер, Петер Стормаре, Миа Коттет, Романи Малко, Дэниэл Кэш, Джоди Расикот

Описание: Пока агент Кларк Девлин находится в коме, рядовому нью-йоркскому таксисту Джимми Тонгу приходится взять на себя секретную миссию по заказу правительства США. К Тонгу переходит компьютеризованный смокинг Девлина, который придает его носителю необычайные способности в плане драк, маскировки и обольщения.
И Джимми начинает захватывающую жизнь секретного агента в компании с такой же дилетанткой, как и он сам…


Качество: WEB-DL 720p / 60 FPS
Формат: MKV
Видео кодек: H.264
Аудио кодек: AC3
Видео: x264, 1280 x 720 (16:9), 7329 kbps, 60,000 fps, ( 0.133bpp)
Аудио#1: Русский, AC-3, 48.0 KHz, 6 ch, 384 Kbps
скриншот   скриншот   скриншот   скриншот   скриншот  
Автор рипа: slaventi-69
x264 [info]: frame I:2479 Avg QP:16.05 size: 99976
x264 [info]: frame P:87156 Avg QP:19.07 size: 31965
x264 [info]: frame B:265531 Avg QP:22.06 size: 8998
x264 [info]: consecutive B-frames: 2.5% 2.8% 11.6% 17.3% 65.8%


Общее
Уникальный идентификатор : 223652743828358981785117124806510502157 (0xA841F39F39C35CC6AFCA891BC135E10D)
Полное имя : E:\The.Tuxedo.(2002).WEBRip.720p.(60 Fps).mkv
Формат : Matroska
Версия формата : Version 4 / Version 2
Размер файла : 5,32 Гбайт
Продолжительность : 1 ч. 38 м.
Общий поток : 7717 Кбит/сек
Название фильма : Смокинг / The Tuxedo (2002) WEBRip 720p (60 Fps)
Дата кодирования : UTC 2017-09-25 11:58:31
Программа кодирования : mkvmerge v9.1.0 ('Little Earthquakes') 64bit
Библиотека кодирования : libebml v1.3.3 + libmatroska v1.4.4
Attachments : poster.jpg

Видео
Идентификатор : 1
Формат : AVC
Формат/Информация : Advanced Video Codec
Профиль формата : High@L4.1
Параметр CABAC формата : Да
Параметр ReFrames формата : 4 кадра
Идентификатор кодека : V_MPEG4/ISO/AVC
Продолжительность : 1 ч. 38 м.
Битрейт : 7329 Кбит/сек
Ширина : 1280 пикселей
Высота : 720 пикселей
Соотношение сторон : 16:9
Режим частоты кадров : Постоянный
Частота кадров : 60,000 кадров/сек
Цветовое пространство : YUV
Субдискретизация насыщенности : 4:2:0
Битовая глубина : 8 бит
Тип развёртки : Прогрессивная
Бит/(Пиксели*Кадры) : 0.133
Размер потока : 5,05 Гбайт (95%)
Заголовок : slaventi-69 ( R.G. HD-Films | 60 fps )
Библиотека кодирования : x264 core 130 r2273 b3065e6
Настройки программы : cabac=1 / ref=4 / deblock=1:0:0 / analyse=0x3:0x113 / me=umh / subme=9 / psy=1 / psy_rd=1.00:0.00 / mixed_ref=1 / me_range=24 / chroma_me=1 / trellis=2 / 8x8dct=1 / cqm=0 / deadzone=21,11 / fast_pskip=1 / chroma_qp_offset=-2 / threads=10 / lookahead_threads=1 / sliced_threads=0 / nr=0 / decimate=1 / interlaced=0 / bluray_compat=0 / constrained_intra=0 / bframes=4 / b_pyramid=2 / b_adapt=2 / b_bias=0 / direct=3 / weightb=1 / open_gop=0 / weightp=2 / keyint=250 / keyint_min=25 / scenecut=40 / intra_refresh=0 / rc_lookahead=50 / rc=crf / mbtree=1 / crf=16.5 / qcomp=0.60 / qpmin=0 / qpmax=69 / qpstep=4 / ip_ratio=1.40 / aq=1:1.00
Язык : Chinese
Default : Да
Forced : Нет

Аудио
Идентификатор : 2
Формат : AC-3
Формат/Информация : Audio Coding 3
Параметр Endianness формата : Big
Идентификатор кодека : A_AC3
Продолжительность : 1 ч. 38 м.
Вид битрейта : Постоянный
Битрейт : 384 Кбит/сек
Каналы : 6 каналов
Расположение каналов : Front: L C R, Side: L R, LFE
Частота : 48,0 КГц
Частота кадров : 31,250 кадров/сек (1536 spf)
Битовая глубина : 16 бит
Метод сжатия : С потерями
Размер потока : 271 Мбайт (5%)
Заголовок : AC3 5.1 384Kbps (Дубляж, iTunes)
Язык : Russian
ServiceKind/String : Complete Main
Default : Да
Forced : Нет

Текст
Идентификатор : 3
Формат : UTF-8
Идентификатор кодека : S_TEXT/UTF8
Идентификатор кодека/Информация : UTF-8 Plain Text
Продолжительность : 1 ч. 32 м.
Битрейт : 92 бит/сек
ElementCount : 1164
Размер потока : 62,4 Кбайт (0%)
Заголовок : Full, iTunes
Язык : Russian
Default : Нет
Forced : Нет

Меню
00:00:00.000 : en:Aqua La Vista (Main Titles)
00:03:36.800 : en:Art Gallery/Bike Messenger
00:08:12.158 : en:House Rules
00:10:51.650 : en:Meet Clark Devlin
00:13:17.087 : en:CSA Headquarters/Bug Store
00:19:14.778 : en:Skateboard Bomb
00:24:43.356 : en:Banning International
00:27:08.584 : en:Tuxedo Demo
00:31:23.005 : en:Nice Rack
00:35:34.506 : en:Rope Fighting
00:41:18.724 : en:A Little Over Amped
00:44:48.517 : en:Meet James Brown
00:49:04.439 : en:The Last Emperor of Soul
00:57:09.202 : en:Cheryl's Hospitality Suite
01:05:19.329 : en:Walk on Water
01:12:30.384 : en:"Clark Devlin" Is Back
01:17:33.353 : en:The Tuxedo vs. The Suit
01:22:37.490 : en:Awaiting the Queen
01:28:35.181 : en:Operation Art Gallery
01:33:12.249 : en:Outtakes (End Credits)
01:38:41.246 : en:Aqua La Vista (Main Titles)

pb.wtf



Скачать Смокинг через торрент http://i4.imageban.ru/out/2016/05/09/fcf39341f0f5c8f3d70cf75de662ab09.jpg Скачать фильм Смокинг через торрент бесплантно в хорошем качестве Описание: Пока агент Кларк Девлин находится в коме, рядовому нью-йоркскому таксисту Джимми Тонгу приходится взять на себя секретную миссию ... 10 10 7
Info! Золотая раздача, скачанное не засчитывается.
Торрент: Зарегистрирован [2017-09-25 12:56] · скачан: 94 раз
Статус: √ проверено
Размер: 5.32 GB
Как cкачать? Как скачать Смокинг через торрент | UTorrent

28-11-2019 20:33  

Отключить всю рекламу на сайте

    Дорогой пользователь! Огромная просьба, поблагодарите релизера, оцените раздачу и оставьте свои комментарий, если Вы скачали Смокинг через торрент бесплатно! Внесите свою лепту в развитие PiratBit!
    Комментировать посты могут только пользователи прошедшие не сложную регистрацию
    Показать сообщения:    

    Смокинг через торрент
    Скачать бесплатно Смокинг
    Смокинг скачать торрент
    Смокинг смотреть онлайн
    Cкачать фильм Смокинг бесплатно
    Смокинг скачать торрент в хорошем качестве
    Смокинг смотреть онлайн бесплатно в хорошем качестве


    Вы не можете начинать темы
    Вы не можете отвечать на сообщения
    Вы не можете редактировать свои сообщения
    Вы не можете удалять свои сообщения
    Вы не можете голосовать в опросах
    Вы не можете прикреплять файлы к сообщениям
    Вы можете скачивать файлы