2 сезон

iTunes

1 сезон

1

iTunes

iTunes

iTunes

1 сезон

RePack

30

ИГРА 18+

pack

ВАЖНО

!!Акция!!

Alien_RageХит недели

RePack

MK11
pack

Забери бонус

RePack

jed

!!Акция!!

Alien_Rage

RePack

fifa19

RePack

Assassins Creed: Odyssey

RePack

NEED FOR SPEED™ PAYBACK

4 сезон

9 сезон

Бесстыжие 9 сезон

Все сериалы

все сериалы на PB.wtf

RePack

FAR CRY 5
  

Квест / Escape Room (Питер Дьюкс) [2017, Ужасы, BDRip 720p] DUB [iTunes] pb.wtf

Квест через торрент pb.wtf

Размер: 4.44 GB | Добавлен: 3 года 1 мес. назад | Торрент скачан:254 раза
Скачать  

25-09-2017 13:22 Квест Скачать торрент  

Квест / Escape RoomГод выпуска: 2017
Страна: США
Жанр: Ужасы
Продолжительность: 01:26:38
Перевод: Дубляж - [iTunes]
Субтитры: отсутствуют

Режиссер: Питер Дьюкс

rating

В ролях:

Скит Ульрих, Шон Янг, Кристин Донлон, Рэнди Уэйн, Мэтт МакВэй, Эшли Галлегос, Хейли Голдштейн, Ияд Хаджджадж, Абрахам Джастис, Тейлор Джон Пидмонт ...

Описание:

Фильм о популярном квесте, когда игроки ищут выход из запертого помещения, решая серию головоломок. Четверо молодых друзей, записавшихся на игру, обнаруживают себя в ловушке наедине с демоническим убийцей. За один кошмарный час им нужно решить все загадки, чтобы остаться в живых…

Качество: BDRip 720p
Формат: MKV
Видео кодек: H.264
Аудио кодек: AC3 | DTS

Видео: 1280x536 (2.40:1), 23.976 fps, MPEG-4 AVC ~5 433 kbps avg
Аудио#1: 48 kHz, AC3 Dolby Digital, 3/2 (L,C,R,l,r) + LFE ch, ~384 kbps | RUS / iTunes
Аудио#2: 48 kHz, Digital Theater Systems, 3/2 (L,C,R,l,r) + LFE ch, ~1509 kbps | ENG

скриншот   скриншот   скриншот  

Общее
Уникальный идентификатор : 249778545851842701751343388894616777100 (0xBBE9991C914BC17C9B9FF8ED07EE718C)
Полное имя : D:\Kvest.2O17.D.BDRip.72Op.mkv
Формат : Matroska
Версия формата : Version 2
Размер файла : 4,44 Гбайт
Продолжительность : 1 ч. 26 м.
Общий поток : 7322 Кбит/сек
Дата кодирования : UTC 2017-09-25 10:41:56
Программа кодирования : mkvmerge v8.3.0 ('Over the Horizon') 64bit
Библиотека кодирования : libebml v1.3.1 + libmatroska v1.4.2

Видео
Идентификатор : 1
Формат : AVC
Формат/Информация : Advanced Video Codec
Профиль формата : High@L4.1
Параметр CABAC формата : Да
Параметр ReFrames формата : 4 кадра
Идентификатор кодека : V_MPEG4/ISO/AVC
Продолжительность : 1 ч. 26 м.
Битрейт : 5433 Кбит/сек
Ширина : 1280 пикселей
Высота : 536 пикселей
Соотношение сторон : 2,40:1
Режим частоты кадров : Постоянный
Частота кадров : 23,976 (24000/1001) кадра/сек
Цветовое пространство : YUV
Субдискретизация насыщенности : 4:2:0
Битовая глубина : 8 бит
Тип развёртки : Прогрессивная
Бит/(Пиксели*Кадры) : 0.330
Размер потока : 3,29 Гбайт (74%)
Default : Да
Forced : Нет

Аудио #1
Идентификатор : 2
Формат : AC-3
Формат/Информация : Audio Coding 3
Расширение режима : CM (complete main)
Параметр Endianness формата : Big
Идентификатор кодека : A_AC3
Продолжительность : 1 ч. 26 м.
Вид битрейта : Постоянный
Битрейт : 384 Кбит/сек
Каналы : 6 каналов
Расположение каналов : Front: L C R, Side: L R, LFE
Частота : 48,0 КГц
Частота кадров : 31,250 кадров/сек (1536 spf)
Метод сжатия : С потерями
Размер потока : 238 Мбайт (5%)
Язык : Russian
Default : Да
Forced : Нет

Аудио #2
Идентификатор : 3
Формат : DTS
Формат/Информация : Digital Theater Systems
Режим : 16
Параметр Endianness формата : Big
Идентификатор кодека : A_DTS
Продолжительность : 1 ч. 26 м.
Вид битрейта : Постоянный
Битрейт : 1509 Кбит/сек
Каналы : 6 каналов
Расположение каналов : Front: L C R, Side: L R, LFE
Частота : 48,0 КГц
Частота кадров : 93,750 кадра/сек (512 spf)
Битовая глубина : 24 бит
Метод сжатия : С потерями
Размер потока : 935 Мбайт (21%)
Язык : English
Default : Нет
Forced : Нет

Меню
00:00:00.000 : en:00:00:00.000
00:11:23.016 : en:00:11:23.016
00:24:30.970 : en:00:24:30.970
00:35:22.454 : en:00:35:22.454
00:48:09.929 : en:00:48:09.929
00:59:53.048 : en:00:59:53.048
01:11:44.175 : en:01:11:44.175
01:19:49.910 : en:01:19:49.910
01:26:26.139 : en:01:26:26.139
pb.wtf



Скачать Квест через торрент http://img12.lostpic.net/2017/09/20/c21de5e4e8468a0d3169ba98365c95f9.png Скачать фильм Квест через торрент бесплантно в хорошем качестве Описание: Фильм о популярном квесте, когда игроки ищут выход из запертого помещения, решая серию головоломок. Четверо молодых друзей, ... 10 10 6
Торрент: Зарегистрирован [2017-09-25 13:22] · скачан: 254 раз
Статус: # сомнительно
Размер: 4.44 GB
Как cкачать? Как скачать Квест через торрент | qTorrent

% Раздел Тема Автор DL S | L
T Фильмы 2018 [DVDrip, WEB-DLRip, HDrip] (DUB, MVO) [ 1.46 GB ] Смертельный квест / No Escape Room [2018 WEB-DLRip] MVO [HDRezka] - ExKinoRay Enigma2010 Скачать
1 | 0
T Фильмы (WEB-DL 720p, 1080p) [ 3.36 GB ] Смертельный квест / No Escape Room [2018 WEB-DL 1080p] MVO [HDRezka Studio] - ExKinoRay Enigma2010 Скачать
1 | 0
T Фильмы (мультфильмы) cо спонсором показа (Новинки AVI/MKV) [ 2.99 GB ] Смертельный квест / No Escape Room [2018 WEB-DL 720p] MVO ["Синема УС"] bober100 Скачать
1 | 0
T Фильмы (мультфильмы) cо спонсором показа (Новинки AVI/MKV) [ 1.37 GB ] Смертельный квест / No Escape Room [2018 WEB-DLRip] MVO ["Синема УС"] bober100 Скачать
1 | 0
Фильмы 2017 [DVDrip, WEB-DLRip, HDrip] (DUB, MVO) [ 1.37 GB ] Квест / Escape Room [2017 HDRip] bober100 Скачать
1 | 0
T Фильмы [HD 720p, 1080p] (Хороший звук DUB, MVO) [ 6.79 GB ] Квест / Escape Room [2017 BDRip 1080p] bober100 Скачать
1 | 0

28-11-2019 20:33  

Отключить всю рекламу на сайте

25-09-2017 16:51 Квест Скачать торрент  

Всё это го...но ещё в "Пиле"набило оскомину!Подвалы,загадки...чушь,бл..ь!pb.wtf



    Дорогой пользователь! Огромная просьба, поблагодарите релизера, оцените раздачу и оставьте свои комментарий, если Вы скачали Квест через торрент бесплатно! Внесите свою лепту в развитие PiratBit!
    Комментировать посты могут только пользователи прошедшие не сложную регистрацию
    Показать сообщения:    

    Квест через торрент
    Скачать бесплатно Квест
    Квест скачать торрент
    Квест смотреть онлайн
    Cкачать фильм Квест бесплатно
    Квест скачать торрент в хорошем качестве
    Квест смотреть онлайн бесплатно в хорошем качестве


    Вы не можете начинать темы
    Вы не можете отвечать на сообщения
    Вы не можете редактировать свои сообщения
    Вы не можете удалять свои сообщения
    Вы не можете голосовать в опросах
    Вы не можете прикреплять файлы к сообщениям
    Вы можете скачивать файлы